За последнюю неделю опубликовано 64 новых материалов.
Инструкция новичку Путеводитель по форуму Прокси для Telegram Показать подсказки , это бомба!

Скачать Царство небесное / Kingdom of Heaven (2005) HybridRip-AVC | D | Open Matte бесплатно через торрент

  • Поучаствуй (в качестве покупателя) в любых пяти совместных покупках (кроме завершённых и "Моментальных") и получи группу "Новичок" навсегда -> ссылка на раздел
  • Получай до 480 рублей за каждого приглашенного пользователя!
    представляем Вам очередное расширение партнерской программы, подробности описаны тут -> ссылка
  • 90% материалов доступно к скачиванию после простой регистрации!
    Если же ты хочешь скачивать материалы без требования оставлять отзывы то получи группу "Новичок", 10 способов повышения описаны тут -> ссылка
  • К сожалению количество битых ссылок растет и мы уже не можем их оперативно восстанавливать поэтому просим помощи у каждого нашего пользователя.
    С сегодняшнего дня, за каждую восстановленную ссылку мы заплатим Вам.
    Подробнее тут -> ссылка
  • Перенесем твои заслуги с другого ресурса!
    Мы понимаем как сложно прокачивать аккаунты на форумах, вроде раскачал аккаунт, а тут появляется ресурс в 100 раз круче но тоже с системой прокачки и снова качать аккаунт...
    Предлагаем вам перенести Ваши заслуги на другом подобном ресурсе к нам.
    Подробности описаны тут -> ссылка
  • Вы можете получать по 2.5% с каждой покупки и продажи на маркете! Подробности в теме Партнёрская программа
Если Вы не хотите скачивать, Вы всегда можетепосмотретьонлайн, просто нажмите кнопку ниже :

Открыть плеер

Torrent_Bot

Торрент-Бот
Бот форума
4 Окт 2016
92
160
20



Название: Царство небесное
Оригинальное название: Kingdom of Heaven
Год выхода: 2005
Жанр: Приключения, история, боевик
Режиссер: Ридли Скотт
В ролях: Орландо Блум, Ева Грин, Лиам Нисон, Дэвид Тьюлис, Джереми Айронс, Эрик Эбони, Натали Кокс, Филип Гленистер, Мартин Хэнкок, Бронсон Уэбб, Кевин МакКидд, Николай Костер-Валдау, Стивен Робертсон, Мартон Чокаш, Александр Сиддинг, Велибор Топик, Майкл Шэйффер, Майкл Шин, Брендан Глисон, Нассер Мемарзиа, Джоко Ахола

О фильме:
Франция, конец XII века. Кузнец Балиан узнает, что приходится незаконнорожденным сыном крестоносцу сэру Годфри. После смерти жены его ничто не держит во Франции, и Балиан присоединяется к отцовскому походу в Святую Землю, хотя и не отличается пылкой верой в Бога. К несчастью, в пути сзр Годфри гибнет, едва успев посвятить сына в рыцари. Прибыв в Иерусалим, Балиан понимает, что в придачу к поместью ему досталось обязанность участвовать в запутанной местной политике. Конфликты интересов рвут на части слабое государство, а мусульманский владыка Саладин готовится вернуть себе Священный Город.



Страна: США, Испания
Выпущено: 20th Century Fox Film Corporation, Babelsberg Film GmbH, Scott Free Productions
Продолжительность: 02:24:33
Перевод: Профессиональный (полное дублирование)

Формат: MKV
Качество: HybridRip-AVC
Видео: AVC/H.264, 1024x576, 23.976 fps, ~2678 Kbps
Аудио 1: AC3, 6 ch, 448 kbps - Русский (DUB)
Аудио 2: AC3, 6 ch, 448 kbps - Английский
Субтитры: русские (форс, полные), английские

MediaInfo
x264 [info]: frame I:1890 Avg QP:17.67 size: 83710
x264 [info]: frame P:54236 Avg QP:19.15 size: 28029
x264 [info]: frame B:151822 Avg QP:21.91 size: 8069
x264 [info]: consecutive B-frames: 5.8% 3.7% 9.1% 26.3% 21.2% 28.0% 3.4% 1.1% 0.5% 0.9%

General
Unique ID : 187456022229866272081485575889398185325 (0x8D06B7762A86C177B6E74CBF09B6BD6D)
Complete name : D:Kingdom of Heaven (2005) Open Matte.mkv
Format : Matroska
Format version : Version 4
File size : 3.61 GiB
Duration : 2 h 24 min
Overall bit rate : 3 576 kb/s
Movie name : Царство небесное / Kingdom of Heaven (2005) (Theatrical) (Open Matte) - #LORDKILL#
Encoded date : UTC 2020-08-08 15:09:51
Writing application : mkvmerge v8.3.0 ('Over the Horizon') 32bit
Writing library : libebml v1.3.1 + libmatroska v1.4.2

Video
ID : 1
Format : AVC
Format/Info : Advanced Video Codec
Format profile : [email protected]
Format settings : CABAC / 12 Ref Frames
Format settings, CABAC : Yes
Format settings, Reference : 12 frames
Codec ID : V_MPEG4/ISO/AVC
Duration : 2 h 24 min
Bit rate : 2 678 kb/s
Width : 1 024 pixels
Height : 576 pixels
Display aspect ratio : 16:9
Frame rate mode : Constant
Frame rate : 23.976 (24000/1001) FPS
Color space : YUV
Chroma subsampling : 4:2:0
Bit depth : 8 bits
Scan type : Progressive
Bits/(Pixel*Frame) : 0.189
Stream size : 2.70 GiB (75%)
Writing library : x264 core 159 r2991 1771b55
Encoding settings : cabac=1 / ref=12 / deblock=1:-2:-2 / analyse=0x3:0x113 / me=umh / subme=10 / psy=1 / psy_rd=1.00:0.20 / mixed_ref=1 / me_range=32 / chroma_me=1 / trellis=2 / 8x8dct=1 / cqm=0 / deadzone=21,11 / fast_pskip=0 / chroma_qp_offset=-3 / threads=12 / lookahead_threads=2 / sliced_threads=0 / nr=0 / decimate=1 / interlaced=0 / bluray_compat=0 / constrained_intra=0 / bframes=9 / b_pyramid=2 / b_adapt=2 / b_bias=0 / direct=1 / weightb=1 / open_gop=0 / weightp=2 / keyint=240 / keyint_min=23 / scenecut=40 / intra_refresh=0 / rc=crf / mbtree=0 / crf=19.5 / qcomp=0.60 / qpmin=0 / qpmax=69 / qpstep=4 / ip_ratio=1.40 / pb_ratio=1.30 / aq=1:1.00
Default : Yes
Forced : No

Audio #1
ID : 2
Format : AC-3
Format/Info : Audio Coding 3
Commercial name : Dolby Digital
Codec ID : A_AC3
Duration : 2 h 24 min
Bit rate mode : Constant
Bit rate : 448 kb/s
Channel(s) : 6 channels
Channel layout : L R C LFE Ls Rs
Sampling rate : 48.0 kHz
Frame rate : 31.250 FPS (1536 SPF)
Bit depth : 16 bits
Compression mode : Lossy
Stream size : 463 MiB (13%)
Title : DUB
Language : Russian
Service kind : Complete Main
Default : Yes
Forced : No

Audio #2
ID : 3
Format : AC-3
Format/Info : Audio Coding 3
Commercial name : Dolby Digital
Codec ID : A_AC3
Duration : 2 h 24 min
Bit rate mode : Constant
Bit rate : 448 kb/s
Channel(s) : 6 channels
Channel layout : L R C LFE Ls Rs
Sampling rate : 48.0 kHz
Frame rate : 31.250 FPS (1536 SPF)
Bit depth : 16 bits
Compression mode : Lossy
Stream size : 463 MiB (13%)
Language : English
Service kind : Complete Main
Default : No
Forced : No

Text #1
ID : 4
Format : UTF-8
Codec ID : S_TEXT/UTF8
Codec ID/Info : UTF-8 Plain Text
Duration : 59 min 46 s
Bit rate : 0 b/s
Count of elements : 4
Stream size : 185 Bytes (0%)
Title : Forced
Language : Russian
Default : Yes
Forced : No

Text #2
ID : 5
Format : UTF-8
Codec ID : S_TEXT/UTF8
Codec ID/Info : UTF-8 Plain Text
Duration : 2 h 14 min
Bit rate : 45 b/s
Count of elements : 802
Stream size : 45.0 KiB (0%)
Title : Full
Language : Russian
Default : No
Forced : No

Text #3
ID : 6
Format : UTF-8
Codec ID : S_TEXT/UTF8
Codec ID/Info : UTF-8 Plain Text
Duration : 2 h 11 min
Bit rate : 26 b/s
Count of elements : 726
Stream size : 25.1 KiB (0%)
Title : Full
Language : English
Default : No
Forced : No

Menu
00:00:00.000 : :1
00:03:34.548 : :2
00:08:35.181 : :3
00:10:32.966 : :4
00:11:58.176 : :5
00:13:33.062 : :6
00:19:05.770 : :7
00:20:22.847 : :8
00:22:38.732 : :9
00:24:09.740 : :10
00:26:51.109 : :11
00:29:34.773 : :12
00:33:17.329 : :13
00:36:29.521 : :14
00:40:32.597 : :15
00:44:21.742 : :16
00:47:01.235 : :17
00:49:22.501 : :18
00:52:48.916 : :19
00:56:24.006 : :20
00:58:12.531 : :21
01:02:38.630 : :22
01:07:38.471 : :23
01:08:52.879 : :24
01:12:11.494 : :25
01:14:52.154 : :26
01:16:50.397 : :27
01:21:21.043 : :28
01:23:50.692 : :29
01:26:46.326 : :30
01:29:56.891 : :31
01:33:28.436 : :32
01:35:09.996 : :33
01:37:17.123 : :34
01:39:04.981 : :35
01:42:52.041 : :36
01:44:58.959 : :37
01:48:54.737 : :38
01:54:58.683 : :39
01:58:56.755 : :40
02:01:05.425 : :41
02:04:12.320 : :42
02:09:30.680 : :43
02:11:16.952 : :44
02:12:33.904 : :45
02:15:36.295 : :46
Примечание & Сравнения:
Гибрид получен путем автоматического наложения широкоэкранного BD Remux (2.34:1) поверх HDTV 1HD (16:9) плагином AutoOverlay. Логотип убран с помощью WEB-DL. Цвет гибрида усреднен между HDTV и WEB-DL. Примерно 95% фильма идет полноценный Open Matte относительно ремукса театральной версии.
WEB-DL - HDTV - TC BDRemux - DC BDRemux - Hybrid Open Matte








Скриншоты
 

Вложения

  • 19 KB Просмотры: 0
    Личеров 0
    Сидеров 0
    Файлов 1
    Объем 3,6 GB

Привет!

Мы группа людей которые решили помочь другим в решении их проблем, а так же пользователям с поиском самых свежих и качественных инфопродуктов. За 4 с небольшим месяца мы создали этот форум на который заходят ежедневно тысячи человек и посещаемость постоянно растёт. Мы создали панель лицензирования для защиты PHP скриптов от воровства и SEO панель для мониторинга наших сайтов и выбора верной стратегии их развития. Мы надеемся что то что мы создали пригодится Вам и возможно Вы поможете нам развиваться и совершенствоваться вместе с Вами.

Статистика форума

Темы
406.657
Сообщения
465.103
Пользователи
84.681
Новый пользователь
natalymak

Приложения форума для iOS и Android


У ркн там нет власти ;)
Приватные разговоры
Помощь Пользователи
    Вы не присоединились ни к одной комнате.