За последнюю неделю опубликовано 30 новых материалов.
Инструкция новичку Путеводитель по форуму Прокси для Telegram Показать подсказки , это бомба!

Скачать Царство небесное / Kingdom of Heaven (2005) HybridRip 720p | D | Theatrical Cut | Open Matte бесплатно через торрент

  • Поучаствуй (в качестве покупателя) в любых пяти совместных покупках (кроме завершённых и "Моментальных") и получи группу "Новичок" навсегда -> ссылка на раздел
  • Получай до 480 рублей за каждого приглашенного пользователя!
    представляем Вам очередное расширение партнерской программы, подробности описаны тут -> ссылка
  • 90% материалов доступно к скачиванию после простой регистрации!
    Если же ты хочешь скачивать материалы без требования оставлять отзывы то получи группу "Новичок", 10 способов повышения описаны тут -> ссылка
  • К сожалению количество битых ссылок растет и мы уже не можем их оперативно восстанавливать поэтому просим помощи у каждого нашего пользователя.
    С сегодняшнего дня, за каждую восстановленную ссылку мы заплатим Вам.
    Подробнее тут -> ссылка
  • Перенесем твои заслуги с другого ресурса!
    Мы понимаем как сложно прокачивать аккаунты на форумах, вроде раскачал аккаунт, а тут появляется ресурс в 100 раз круче но тоже с системой прокачки и снова качать аккаунт...
    Предлагаем вам перенести Ваши заслуги на другом подобном ресурсе к нам.
    Подробности описаны тут -> ссылка
  • Вы можете получать по 2.5% с каждой покупки и продажи на маркете! Подробности в теме Партнёрская программа
Если Вы не хотите скачивать, Вы всегда можетепосмотретьонлайн, просто нажмите кнопку ниже :

Открыть плеер

Torrent_Bot

Торрент-Бот
Бот форума
4 Окт 2016
93
160
20

Информация о фильме
Название: Царство небесное
Оригинальное название: Kingdom of Heaven
Год выхода: 2005
Жанр: Приключения, история, боевик
Режиссер: Ридли Скотт / Ridley Scott
В ролях: Орландо Блум, Ева Грин, Лиам Нисон, Дэвид Тьюлис, Джереми Айронс, Эрик Эбони, Натали Кокс, Филип Гленистер, Мартин Хэнкок, Бронсон Уэбб, Кевин МакКидд, Николай Костер-Валдау, Стивен Робертсон, Мартон Чокаш, Александр Сиддинг, Велибор Топик, Майкл Шэйффер, Майкл Шин, Брендан Глисон, Нассер Мемарзиа, Джоко Ахола

О фильме:
Франция, конец XII века. Кузнец Балиан узнает, что приходится незаконнорожденным сыном крестоносцу сэру Годфри. После смерти жены его ничто не держит во Франции, и Балиан присоединяется к отцовскому походу в Святую Землю, хотя и не отличается пылкой верой в Бога. К несчастью, в пути сзр Годфри гибнет, едва успев посвятить сына в рыцари. Прибыв в Иерусалим, Балиан понимает, что в придачу к поместью ему досталось обязанность участвовать в запутанной местной политике. Конфликты интересов рвут на части слабое государство, а мусульманский владыка Саладин готовится вернуть себе Священный Город.



Страна: США, Испания
Студия: Scott Free Productions
Продолжительность: 02:24:33
Перевод: Полное дублирование + Профессиональный (двухголосый закадровый)
Субтитры: Russian (forced, full), English (full)

Файл
Формат: Matroska
Качество: HybridRip 720p | Theatrical Cut | Open Matte
Видео: 1280x720 (16:9) at 23.976 fps, x264, ~4921 kbps, 0.223 bpp
Аудио #1: Russian AC3 / 5.1 / 48 kHz / 448 kbps / | Дубляж | [Невафильм-2005г.]
Аудио #2: Russian AC3 / 5.1 / 48 kHz / 448 kbps / | Tycoon| DVO
Аудио #3: English AC3 / 5.1 / 48 kHz / 448 kbps / | Original |
Формат субтитров: softsub (SRT)

***Релиз от:-=DoMiNo=-

M/I
x264 [info]: frame I:1809 Avg QP:17.27 size:109234
x264 [info]: frame P:44845 Avg QP:18.48 size: 51235
x264 [info]: frame B:161295 Avg QP:20.57 size: 17608

General
Format : Matroska
Format version : Version 4
File size : 6.33 GiB
Duration : 2 h 24 min
Overall bit rate : 6 268 kb/s
Movie name : Царство небесное.T.C.(2005).HybridRip.720p.O.M.[-=DoMiNo=-]
Encoded date : UTC 2020-08-02 06:14:55
Writing application : mkvmerge v48.0.0 ('Fortress Around Your Heart') 64-bit
Writing library : libebml v1.4.0 + libmatroska v1.6.0
Cover : Yes
Attachments : Cover.jpg / Cover 2.jpg

Video
ID : 1
Format : AVC
Format/Info : Advanced Video Codec
Format profile : [email protected]
Format settings : CABAC / 9 Ref Frames
Format settings, CABAC : Yes
Format settings, Reference : 9 frames
Codec ID : V_MPEG4/ISO/AVC
Duration : 2 h 24 min
Bit rate : 4 921 kb/s
Width : 1 280 pixels
Height : 720 pixels
Display aspect ratio : 16:9
Frame rate mode : Constant
Frame rate : 23.976 (24000/1001) FPS
Color space : YUV
Chroma subsampling : 4:2:0
Bit depth : 8 bits
Scan type : Progressive
Bits/(Pixel*Frame) : 0.223
Stream size : 4.97 GiB (79%)
Title : -=DoMiNo=-
Writing library : x264 core 161 r3018 db0d417
Encoding settings : cabac=1 / ref=9 / deblock=1:-3:-3 / analyse=0x3:0x133 / me=umh / subme=10 / psy=1 / psy_rd=1.00:0.20 / mixed_ref=1 / me_range=32 / chroma_me=1 / trellis=2 / 8x8dct=1 / cqm=0 / deadzone=21,11 / fast_pskip=0 / chroma_qp_offset=-3 / threads=6 / lookahead_threads=1 / sliced_threads=0 / nr=0 / decimate=1 / interlaced=0 / bluray_compat=0 / constrained_intra=0 / bframes=9 / b_pyramid=2 / b_adapt=2 / b_bias=0 / direct=1 / weightb=1 / open_gop=0 / weightp=2 / keyint=250 / keyint_min=23 / scenecut=40 / intra_refresh=0 / rc_lookahead=60 / rc=crf / mbtree=0 / crf=19.0 / qcomp=0.60 / qpmin=0 / qpmax=69 / qpstep=4 / vbv_maxrate=50000 / vbv_bufsize=62500 / crf_max=0.0 / nal_hrd=none / filler=0 / ip_ratio=1.40 / pb_ratio=1.30 / aq=1:1.00
Language : English
Default : Yes
Forced : No
Color range : Limited
Color primaries : BT.709
Transfer characteristics : BT.709
Matrix coefficients : BT.709

Audio #1
ID : 2
Format : AC-3
Format/Info : Audio Coding 3
Commercial name : Dolby Digital
Codec ID : A_AC3
Duration : 2 h 24 min
Bit rate mode : Constant
Bit rate : 448 kb/s
Channel(s) : 6 channels
Channel layout : L R C LFE Ls Rs
Sampling rate : 48.0 kHz
Frame rate : 31.250 FPS (1536 SPF)
Compression mode : Lossy
Stream size : 463 MiB (7%)
Title : DUB
Language : Russian
Service kind : Complete Main
Default : Yes
Forced : No

Audio #2
ID : 3
Format : AC-3
Format/Info : Audio Coding 3
Commercial name : Dolby Digital
Codec ID : A_AC3
Duration : 2 h 24 min
Bit rate mode : Constant
Bit rate : 448 kb/s
Channel(s) : 6 channels
Channel layout : L R C LFE Ls Rs
Sampling rate : 48.0 kHz
Frame rate : 31.250 FPS (1536 SPF)
Compression mode : Lossy
Stream size : 463 MiB (7%)
Title : DVO (Tycoon)
Language : Russian
Service kind : Complete Main
Default : No
Forced : No

Audio #3
ID : 4
Format : AC-3
Format/Info : Audio Coding 3
Commercial name : Dolby Digital
Codec ID : A_AC3
Duration : 2 h 24 min
Bit rate mode : Constant
Bit rate : 448 kb/s
Channel(s) : 6 channels
Channel layout : L R C LFE Ls Rs
Sampling rate : 48.0 kHz
Frame rate : 31.250 FPS (1536 SPF)
Compression mode : Lossy
Stream size : 463 MiB (7%)
Language : English
Service kind : Complete Main
Default : No
Forced : No

Text #1
ID : 5
Format : UTF-8
Codec ID : S_TEXT/UTF8
Codec ID/Info : UTF-8 Plain Text
Duration : 59 min 46 s
Bit rate : 0 b/s
Count of elements : 4
Stream size : 185 Bytes (0%)
Title : Forced
Language : Russian
Default : Yes
Forced : No

Text #2
ID : 6
Format : UTF-8
Codec ID : S_TEXT/UTF8
Codec ID/Info : UTF-8 Plain Text
Duration : 2 h 14 min
Bit rate : 45 b/s
Count of elements : 802
Stream size : 45.0 KiB (0%)
Title : Full
Language : Russian
Default : No
Forced : No

Text #3
ID : 7
Format : UTF-8
Codec ID : S_TEXT/UTF8
Codec ID/Info : UTF-8 Plain Text
Duration : 2 h 11 min
Bit rate : 26 b/s
Count of elements : 726
Stream size : 25.1 KiB (0%)
Title : Full
Language : English
Default : No
Forced : No

Menu
00:00:00.000 : :1
00:03:34.548 : :2
00:08:35.181 : :3
00:10:32.966 : :4
00:11:58.176 : :5
00:13:33.062 : :6
00:19:05.770 : :7
00:20:22.847 : :8
00:22:38.732 : :9
00:24:09.740 : :10
00:26:51.109 : :11
00:29:34.773 : :12
00:33:17.329 : :13
00:36:29.521 : :14
00:40:32.597 : :15
00:44:21.742 : :16
00:47:01.235 : :17
00:49:22.501 : :18
00:52:48.916 : :19
00:56:24.006 : :20
00:58:12.531 : :21
01:02:38.630 : :22
01:07:38.471 : :23
01:08:52.879 : :24
01:12:11.494 : :25
01:14:52.154 : :26
01:16:50.397 : :27
01:21:21.043 : :28
01:23:50.692 : :29
01:26:46.326 : :30
01:29:56.891 : :31
01:33:28.436 : :32
01:35:09.996 : :33
01:37:17.123 : :34
01:39:04.981 : :35
01:42:52.041 : :36
01:44:58.959 : :37
01:48:54.737 : :38
01:54:58.683 : :39
01:58:56.755 : :40
02:01:05.425 : :41
02:04:12.320 : :42
02:09:30.680 : :43
02:11:16.952 : :44
02:12:33.904 : :45
02:15:36.295 : :46
Примечания & Сравнения:
ЦитатаКто-то писал:
Гибрид получен путем автоматического наложения широкоэкранного BD Remux (2.34:1) поверх HDTV 1HD (16:9) плагином AutoOverlay. Логотип убран с помощью WEB-DL. Цвет гибрида усреднен между HDTV и WEB-DL.
Примерно 95% фильма идет полноценный Open Matte относительно ремукса театральной версии.
Open Matte-версия фильма имеет большее наполнение кадра по сравнению с Blu-ray.
***Сравнения => BD vs WEB-DL Open Matte

[URL="http://www.framecompare.com/image-compare/screenshotcomparison/7KG6GNNX" target="_blank">***Сравнения => BD vs Hybrid Open Matte
Скриншоты
 

Вложения

  • 127,7 KB Просмотры: 0
    Личеров 0
    Сидеров 0
    Файлов 1
    Объем 6,3 GB

Привет!

Мы группа людей которые решили помочь другим в решении их проблем, а так же пользователям с поиском самых свежих и качественных инфопродуктов. За 4 с небольшим месяца мы создали этот форум на который заходят ежедневно тысячи человек и посещаемость постоянно растёт. Мы создали панель лицензирования для защиты PHP скриптов от воровства и SEO панель для мониторинга наших сайтов и выбора верной стратегии их развития. Мы надеемся что то что мы создали пригодится Вам и возможно Вы поможете нам развиваться и совершенствоваться вместе с Вами.

Статистика форума

Темы
406.605
Сообщения
465.025
Пользователи
84.385
Новый пользователь
SomeCat123

Приложения форума для iOS и Android


У ркн там нет власти ;)
Приватные разговоры
Помощь Пользователи
    Вы не присоединились ни к одной комнате.