За последнюю неделю опубликовано 193 новых материалов.
Инструкция новичку Путеводитель по форуму Прокси для Telegram Показать подсказки , это бомба!

Скачать Carmen Souza - The Silver Messengers [24bit Hi-Res] (2019) FLAC бесплатно через торрент

  • Поучаствуй (в качестве покупателя) в любых пяти совместных покупках (кроме завершённых и "Моментальных") и получи группу "Новичок" навсегда -> ссылка на раздел
  • Получай до 480 рублей за каждого приглашенного пользователя!
    представляем Вам очередное расширение партнерской программы, подробности описаны тут -> ссылка
  • 90% материалов доступно к скачиванию после простой регистрации!
    Если же ты хочешь скачивать материалы без требования оставлять отзывы то получи группу "Новичок", 10 способов повышения описаны тут -> ссылка
  • К сожалению количество битых ссылок растет и мы уже не можем их оперативно восстанавливать поэтому просим помощи у каждого нашего пользователя.
    С сегодняшнего дня, за каждую восстановленную ссылку мы заплатим Вам.
    Подробнее тут -> ссылка
  • Перенесем твои заслуги с другого ресурса!
    Мы понимаем как сложно прокачивать аккаунты на форумах, вроде раскачал аккаунт, а тут появляется ресурс в 100 раз круче но тоже с системой прокачки и снова качать аккаунт...
    Предлагаем вам перенести Ваши заслуги на другом подобном ресурсе к нам.
    Подробности описаны тут -> ссылка
  • Вы можете получать по 2.5% с каждой покупки и продажи на маркете! Подробности в теме Партнёрская программа

Torrent_Bot

Торрент-Бот
Бот форума
4 Окт 2016
124
94
20



Исполнитель: Carmen Souza
Название: The Silver Messengers
Страна: Portugal
Жанр: Latin-Jazz, World-Fusion
Год: 2019
Продолжительность: 00:45:34
Битрейт аудио: Lossless
Формат/Кодек: FLAC
Тип рипа: tracks
Разрядность: 24/48
Количество каналов: 2.0


01. Soul Searching (03:43)
02. The Jody Grind (03:48)
03. Señor Blues (04:50)
04. Nutville (03:17)
05. Lady Musika (03:30)
06. St Vitus Dance (04:06)
07. Pretty Eyes (03:43)
08. Kathy (03:36)
09. Song for my Father (06:09)
10. Cape Verdean Blues (04:58)
11. Silver Blues (03:50)

DR
foobar2000 1.5 / Замер динамического диапазона (DR) 1.1.1
Дата отчёта: 2019-12-09 08:16:40

--------------------------------------------------------------------------------
Анализ: Carmen Souza / The Silver Messengers
--------------------------------------------------------------------------------

DR Пики RMS Продолжительность трека
--------------------------------------------------------------------------------
DR9 -0.44 дБ -10.22 дБ 3:44 01-Soul Searching
DR9 -0.42 дБ -10.91 дБ 3:49 02-The Jody Grind
DR10 -0.45 дБ -11.69 дБ 4:50 03-Señor Blues
DR11 -0.15 дБ -12.21 дБ 3:18 04-Nutville
DR8 0.00 дБ -10.05 дБ 3:31 05-Lady Musika
DR9 -0.43 дБ -11.11 дБ 4:06 06-St Vitus Dance
DR9 -1.79 дБ -12.04 дБ 3:43 07-Pretty Eyes
DR9 0.00 дБ -10.13 дБ 3:36 08-Kathy
DR10 0.00 дБ -11.28 дБ 6:09 09-Song for My Father
DR8 -0.63 дБ -10.44 дБ 4:58 10-Cape Verdean Blues
DR10 -0.18 дБ -12.00 дБ 3:51 11-Silver Blues
--------------------------------------------------------------------------------

Количество треков: 11
Реальные значения DR: DR9

Частота: 48000 Гц
Каналов: 2
Разрядность: 24
Битрейт: 1642 кбит/с
Кодек: FLAC
================================================================================
Внимание! Раздаю до первых трёх скачавших, дальше всё остаётся на вашей совести !
 

Вложения

  • 12,5 KB Просмотры: 0
    Личеров 0
    Сидеров 0
    Файлов 20
    Объем 543,5 MB
Ваш e-mail не будет опубликован. Он потребуется для подтверждения Вашего поста.
Оформление текста Нажмите «Ввод», чтобы отправить ответ.

Привет!

Мы группа людей которые решили помочь другим в решении их проблем, а так же пользователям с поиском самых свежих и качественных инфопродуктов. За 4 с небольшим месяца мы создали этот форум на который заходят ежедневно тысячи человек и посещаемость постоянно растёт. Мы создали панель лицензирования для защиты PHP скриптов от воровства и SEO панель для мониторинга наших сайтов и выбора верной стратегии их развития. Мы надеемся что то что мы создали пригодится Вам и возможно Вы поможете нам развиваться и совершенствоваться вместе с Вами.

Статистика форума

Темы
378.715
Сообщения
417.913
Пользователи
49.439
Новый пользователь
Нади

Приложения форума для iOS и Android


У ркн там нет власти ;)
Приватные разговоры
Помощь Пользователи
    Вы не присоединились ни к одной комнате.