За последнюю неделю опубликовано 35 новых материалов.
Инструкция новичку Путеводитель по форуму Прокси для Telegram Показать подсказки , это бомба!

Скачать Camila Meza & The Nectar Orchestra - Ámbar [24bit Hi-Res] (2019) FLAC бесплатно через торрент

  • Поучаствуй (в качестве покупателя) в любых пяти совместных покупках (кроме завершённых и "Моментальных") и получи группу "Новичок" навсегда -> ссылка на раздел
  • Получай до 480 рублей за каждого приглашенного пользователя!
    представляем Вам очередное расширение партнерской программы, подробности описаны тут -> ссылка
  • 90% материалов доступно к скачиванию после простой регистрации!
    Если же ты хочешь скачивать материалы без требования оставлять отзывы то получи группу "Новичок", 10 способов повышения описаны тут -> ссылка
  • К сожалению количество битых ссылок растет и мы уже не можем их оперативно восстанавливать поэтому просим помощи у каждого нашего пользователя.
    С сегодняшнего дня, за каждую восстановленную ссылку мы заплатим Вам.
    Подробнее тут -> ссылка
  • Перенесем твои заслуги с другого ресурса!
    Мы понимаем как сложно прокачивать аккаунты на форумах, вроде раскачал аккаунт, а тут появляется ресурс в 100 раз круче но тоже с системой прокачки и снова качать аккаунт...
    Предлагаем вам перенести Ваши заслуги на другом подобном ресурсе к нам.
    Подробности описаны тут -> ссылка
  • Вы можете получать по 2.5% с каждой покупки и продажи на маркете! Подробности в теме Партнёрская программа

Torrent_Bot

Торрент-Бот
Бот форума
4 Окт 2016
93
160
20



Исполнитель: Camila Meza & The Nectar Orchestra
Название: Ámbar
Страна: Chile
Жанр: Vocal-Jazz, World-Fusion
Год: 2019
Продолжительность: 00:56:13
Битрейт аудио: Lossless
Формат/Кодек: FLAC
Тип рипа: tracks
Разрядность: 24/96
Количество каналов: 2.0


01. Kallfu
02. Waltz #1
03. Awaken
04. This is Not America
05. Olha Maria
06. Atardecer
07. All Your Colors
08. Milagre dos Peixes
09. Interlude
10. Ambar
11. Fall
12. Cucurrucucu Paloma

DR
foobar2000 1.4.4 / Замер динамического диапазона (DR) 1.1.1
Дата отчёта: 2019-06-11 06:36:51

--------------------------------------------------------------------------------
Анализ: Camila Meza / Ambar
--------------------------------------------------------------------------------

DR Пики RMS Продолжительность трека
--------------------------------------------------------------------------------
DR8 -0.07 дБ -10.60 дБ 4:50 01-Kallfu
DR7 -0.07 дБ -9.72 дБ 4:24 02-Waltz #1
DR7 -0.07 дБ -9.45 дБ 6:37 03-Awaken
DR8 -0.07 дБ -10.59 дБ 5:26 04-This is Not America
DR8 -0.07 дБ -12.36 дБ 5:13 05-Olha Maria
DR8 -0.07 дБ -10.02 дБ 4:39 06-Atardecer
DR8 -0.07 дБ -10.76 дБ 4:51 07-All Your Colors
DR7 -0.07 дБ -10.21 дБ 4:52 08-Milagre dos Peixes
DR11 -4.80 дБ -20.06 дБ 0:52 09-Interlude
DR8 -0.07 дБ -12.31 дБ 5:01 10-Ambar
DR8 -0.07 дБ -10.83 дБ 5:14 11-Fall
DR9 -0.07 дБ -11.93 дБ 4:20 12-Cucurrucucu Paloma
--------------------------------------------------------------------------------

Количество треков: 12
Реальные значения DR: DR8

Частота: 96000 Гц
Каналов: 2
Разрядность: 24
Битрейт: 2467 кбит/с
Кодек: FLAC
================================================================================
 

Вложения

  • 12,9 KB Просмотры: 1
    Личеров 0
    Сидеров 0
    Файлов 13
    Объем 1,1 GB

Привет!

Мы группа людей которые решили помочь другим в решении их проблем, а так же пользователям с поиском самых свежих и качественных инфопродуктов. За 4 с небольшим месяца мы создали этот форум на который заходят ежедневно тысячи человек и посещаемость постоянно растёт. Мы создали панель лицензирования для защиты PHP скриптов от воровства и SEO панель для мониторинга наших сайтов и выбора верной стратегии их развития. Мы надеемся что то что мы создали пригодится Вам и возможно Вы поможете нам развиваться и совершенствоваться вместе с Вами.

Статистика форума

Темы
406.609
Сообщения
465.050
Пользователи
84.418
Новый пользователь
julia1993

Приложения форума для iOS и Android


У ркн там нет власти ;)
Приватные разговоры
Помощь Пользователи
    Вы не присоединились ни к одной комнате.