За последнюю неделю опубликовано 62 новых материалов.
Инструкция новичку Путеводитель по форуму Прокси для Telegram Показать подсказки , это бомба!

Скачать Callejon - Metropolis (2020) FLAC бесплатно через торрент

  • Поучаствуй (в качестве покупателя) в любых пяти совместных покупках (кроме завершённых и "Моментальных") и получи группу "Новичок" навсегда -> ссылка на раздел
  • Получай до 480 рублей за каждого приглашенного пользователя!
    представляем Вам очередное расширение партнерской программы, подробности описаны тут -> ссылка
  • 90% материалов доступно к скачиванию после простой регистрации!
    Если же ты хочешь скачивать материалы без требования оставлять отзывы то получи группу "Новичок", 10 способов повышения описаны тут -> ссылка
  • К сожалению количество битых ссылок растет и мы уже не можем их оперативно восстанавливать поэтому просим помощи у каждого нашего пользователя.
    С сегодняшнего дня, за каждую восстановленную ссылку мы заплатим Вам.
    Подробнее тут -> ссылка
  • Перенесем твои заслуги с другого ресурса!
    Мы понимаем как сложно прокачивать аккаунты на форумах, вроде раскачал аккаунт, а тут появляется ресурс в 100 раз круче но тоже с системой прокачки и снова качать аккаунт...
    Предлагаем вам перенести Ваши заслуги на другом подобном ресурсе к нам.
    Подробности описаны тут -> ссылка
  • Вы можете получать по 2.5% с каждой покупки и продажи на маркете! Подробности в теме Партнёрская программа

Torrent_Bot

Торрент-Бот
Бот форума
4 Окт 2016
92
160
20



Название: Metropolis
Исполнитель: Callejon
Год: 2020
Жанр: Metalcore
Страна: Germany
Издатель (лейбл): Napalm Records HGMBH

Продолжительность: 00:49:55
Формат/Кодек: FLAC
Битрейт аудио: Lossless

Носитель: WEB Сайт
Страна-производитель диска (релиза): Germany

Трек-лист
01. Metropolis [00:04:43]
02. Gottficker [00:03:53]
03. Blut [00:04:17]
04. Die Krähe mit dem Schädelbauch [00:04:27]
05. Fürchtet euch! [00:03:33]
06. Die Fabrik [00:04:58]
07. Der Wald [00:04:34]
08. Herr der Fliegen [00:03:07]
09. Misraim [00:01:04]
10. Katakomben [00:05:02]
11. Dies Irae [00:03:35]
12. Gestade der Vergessenheit [00:06:37]

Лог проверки качества
-----------------------

DON'T MODIFY THIS FILE

-----------------------

PERFORMER: auCDtect Task Manager, ver. 1.6.0 RC1 build 1.6.0.1
Copyright (c) 2008-2010 y-soft. All rights reserved
http://y-soft.org

ANALYZER: auCDtect: CD records authenticity detector, version 0.8.2
Copyright (c) 2004 Oleg Berngardt. All rights reserved.
Copyright (c) 2004 Alexander Djourik. All rights reserved.

FILE: 12. Gestade der Vergessenheit.flac
Size: 48674332 Hash: D07095BDE7F8443DC4D63CC241ECE1E4 Accuracy: -m0
Conclusion: CDDA 100%
Signature: 37F774BA815C871DC82C26F619FBF64B01F82955
FILE: 11. Dies Irae.flac
Size: 27643130 Hash: 43C9BC93BFE09BAB5E86F11F3CA9BD5A Accuracy: -m0
Conclusion: CDDA 100%
Signature: C0512EEEEA43483EFCFA3BE472CE56F2793AD814
FILE: 10. Katakomben.flac
Size: 38477297 Hash: 0A6DFD5F1B06083B9A9011A0A1D0F89A Accuracy: -m0
Conclusion: CDDA 100%
Signature: 3D858B2D71081C37CDBC1D1B1D58295C1DB0FF3B
FILE: 09. Misraim.flac
Size: 5644690 Hash: F8ABBE9D33766591B915C84363AF73AB Accuracy: -m0
Conclusion: CDDA 100%
Signature: 023036682A79A691C6EBCEAC6F06D08E76D32642
FILE: 08. Herr der Fliegen.flac
Size: 25300270 Hash: 455295E2E73A2707881F399A43482596 Accuracy: -m0
Conclusion: CDDA 100%
Signature: 37F526D5270A47E35925F1CBC85F0C6FA4DC7930
FILE: 07. Der Wald.flac
Size: 35859718 Hash: A5C0D693A3040CD0DD10CC27162F20C1 Accuracy: -m0
Conclusion: CDDA 100%
Signature: CCF985E0162FA857299AE633370E6487136CC836
FILE: 06. Die Fabrik.flac
Size: 40337365 Hash: FF2C1005091B319A9DDDBD56223206EE Accuracy: -m0
Conclusion: CDDA 100%
Signature: 2DDBC5855E10560F37355A68F3CF39501A82C55B
FILE: 05. Fürchtet euch!.flac
Size: 28295116 Hash: 9904067C5C2D90590A39745ED726F365 Accuracy: -m0
Conclusion: CDDA 100%
Signature: 896F40C5CD7285097A768AA720A9B3EFB0CC7D53
FILE: 04. Die Krähe mit dem Schädelbauch.flac
Size: 33176131 Hash: 1B216766D5995BDEAD7131B5A276762C Accuracy: -m0
Conclusion: CDDA 100%
Signature: B807C57736C06ABE0B1B639352D7A8D8A617AC90
FILE: 03. Blut.flac
Size: 33490285 Hash: 9AB0A582E4BBE54B9E90EEA4B09B799F Accuracy: -m0
Conclusion: CDDA 100%
Signature: 3A34BF51B73FDAA7287CB3DADFC2117D2DD4B5AD
FILE: 02. Gottficker.flac
Size: 31797486 Hash: F5F2A0A37856AC66E7DBA32DDF8FC666 Accuracy: -m0
Conclusion: CDDA 100%
Signature: 736738FC68031D79500DAB63C3D0FFA473173760
FILE: 01. Metropolis.flac
Size: 35485894 Hash: E2B412279C22C36037C82F04847B4F24 Accuracy: -m0
Conclusion: CDDA 100%
Signature: BED4DBA9AD09C48B3F5ECF626B8E82E4C93F06DC


Dynamic Range Meter
foobar2000 1.5.3 / Dynamic Range Meter 1.1.1
log date: 2020-08-27 21:13:35

--------------------------------------------------------------------------------
Analyzed: Callejon / Metropolis
--------------------------------------------------------------------------------

DR Peak RMS Duration Track
--------------------------------------------------------------------------------
DR5 0.00 dB -6.57 dB 4:43 01-Metropolis
DR5 0.00 dB -5.88 dB 3:53 02-Gottficker
DR5 0.00 dB -5.85 dB 4:18 03-Blut
DR5 0.00 dB -7.39 dB 4:27 04-Die Krähe mit dem Schädelbauch
DR5 0.00 dB -5.97 dB 3:33 05-Fürchtet euch!
DR5 0.00 dB -6.68 dB 4:59 06-Die Fabrik
DR5 0.00 dB -7.02 dB 4:35 07-Der Wald
DR5 0.00 dB -5.80 dB 3:07 08-Herr der Fliegen
DR9 -3.99 dB -15.17 dB 1:04 09-Misraim
DR5 0.00 dB -6.60 dB 5:03 10-Katakomben
DR5 0.00 dB -7.32 dB 3:35 11-Dies Irae
DR5 0.00 dB -7.30 dB 6:38 12-Gestade der Vergessenheit
--------------------------------------------------------------------------------

Number of tracks: 12
Official DR value: DR5

Samplerate: 44100 Hz
Channels: 2
Bits per sample: 16
Bitrate: 976 kbps
Codec: FLAC
================================================================================
 

Вложения

  • 18,9 KB Просмотры: 0
    Личеров 0
    Сидеров 0
    Файлов 14
    Объем 366,9 MB

Привет!

Мы группа людей которые решили помочь другим в решении их проблем, а так же пользователям с поиском самых свежих и качественных инфопродуктов. За 4 с небольшим месяца мы создали этот форум на который заходят ежедневно тысячи человек и посещаемость постоянно растёт. Мы создали панель лицензирования для защиты PHP скриптов от воровства и SEO панель для мониторинга наших сайтов и выбора верной стратегии их развития. Мы надеемся что то что мы создали пригодится Вам и возможно Вы поможете нам развиваться и совершенствоваться вместе с Вами.

Статистика форума

Темы
406.657
Сообщения
465.114
Пользователи
84.665
Новый пользователь
koleg

Приложения форума для iOS и Android


У ркн там нет власти ;)
Приватные разговоры
Помощь Пользователи
    Вы не присоединились ни к одной комнате.