За последнюю неделю опубликовано 38 новых материалов.
Инструкция новичку Путеводитель по форуму Прокси для Telegram Показать подсказки , это бомба!

Скачать Быстрый цвет / Fast Color (2018) WEB-DL 1080p | L бесплатно через торрент

  • Поучаствуй (в качестве покупателя) в любых пяти совместных покупках (кроме завершённых и "Моментальных") и получи группу "Новичок" навсегда -> ссылка на раздел
  • Получай до 480 рублей за каждого приглашенного пользователя!
    представляем Вам очередное расширение партнерской программы, подробности описаны тут -> ссылка
  • 90% материалов доступно к скачиванию после простой регистрации!
    Если же ты хочешь скачивать материалы без требования оставлять отзывы то получи группу "Новичок", 10 способов повышения описаны тут -> ссылка
  • К сожалению количество битых ссылок растет и мы уже не можем их оперативно восстанавливать поэтому просим помощи у каждого нашего пользователя.
    С сегодняшнего дня, за каждую восстановленную ссылку мы заплатим Вам.
    Подробнее тут -> ссылка
  • Перенесем твои заслуги с другого ресурса!
    Мы понимаем как сложно прокачивать аккаунты на форумах, вроде раскачал аккаунт, а тут появляется ресурс в 100 раз круче но тоже с системой прокачки и снова качать аккаунт...
    Предлагаем вам перенести Ваши заслуги на другом подобном ресурсе к нам.
    Подробности описаны тут -> ссылка
  • Вы можете получать по 2.5% с каждой покупки и продажи на маркете! Подробности в теме Партнёрская программа
Если Вы не хотите скачивать, Вы всегда можетепосмотретьонлайн, просто нажмите кнопку ниже :

Открыть плеер

Torrent_Bot

Торрент-Бот
Бот форума
4 Окт 2016
90
166
20



Информация о фильме
Название: Быстрый цвет
Оригинальное название: Fast Color
Год выхода: 2018
Жанр: Фантастика, триллер, драма
Режиссер: Джулия Харт
В ролях: Гугу Мбата-Роу, Дэвид Стрэтэйрн, Лоррейн Туссен, Санийя Сидни, Кристофер Денэм, Жермен Вашингтон, Райан Бегей, Леви Д. Мартинез, Джейсон Е. Хилл, Тассос Эрнандес

О фильме:
Женщина с необычными способностями очень интересует загадочных людей с оружием и в костюмах. Всю жизнь она спасалась в бегах, никогда надолго не задерживаясь на одном месте, но теперь вынуждена вернуться в родной дом.



Страна: США
Студия: Isobel Griffiths Limited, Liddell Entertainment, Original Headquarters
Продолжительность: 01:41:55
Перевод: Любительский многоголосый | Kerob

Файл
Кодек: AVC
Качество: WEB-DL 1080p | Fast.Color.2018.1080p.AMZN.WEB-DL.DDP5.1.H.264-NTG
Видео: MPEG-4 AVC, 8097 Kбит/с, 1920x1040, 23.976 кадр/с
Звук: ► Без Рекламы!
Аудио #1: Русский (АС3, 6ch, 384 Кбит/с, 48.0 KHz) Любительский (многоголосый, закадровый) Kerob
Аудио #2: Английский (E-АС3, 6ch, 640 Кбит/с, 48.0 KHz)
Субтитры: Английские
Трейлер
MediaInfo
Источник: Fast.Color.2018.1080p.AMZN.WEB-DL.DDP5.1.H.264-NTG
General
Unique ID : 232559815785145609814031766955299108761 (0xAEF5642CC5D8052D9D36DA48D9CAF799)
Complete name : Fast.Color.2018.WEB-DL.1080p.mkv
Format : Matroska
Format version : Version 4
File size : 6.50 GiB
Duration : 1 h 41 min
Overall bit rate : 9 123 kb/s
Encoded date : UTC 2019-06-18 14:47:06
Writing application : mkvmerge v7.1.0 ('Good Love') 64bit built on Jul 27 2014 13:06:55
Writing library : libebml v1.3.0 + libmatroska v1.4.1

Video
ID : 1
Format : AVC
Format/Info : Advanced Video Codec
Format profile : [email protected]
Format settings : CABAC / 4 Ref Frames
Format settings, CABAC : Yes
Format settings, Reference fra : 4 frames
Codec ID : V_MPEG4/ISO/AVC
Duration : 1 h 41 min
Bit rate mode : Constant
Bit rate : 8 097 kb/s
Nominal bit rate : 10 000 kb/s
Width : 1 920 pixels
Height : 1 040 pixels
Display aspect ratio : 1.85:1
Frame rate mode : Constant
Frame rate : 23.976 (24000/1001) FPS
Color space : YUV
Chroma subsampling : 4:2:0
Bit depth : 8 bits
Scan type : Progressive
Bits/(Pixel*Frame) : 0.169
Stream size : 5.76 GiB (89%)
Language : English
Default : Yes
Forced : No
Color range : Limited
Color primaries : BT.709
Transfer characteristics : BT.709
Matrix coefficients : BT.709

Audio #1
ID : 2
Format : AC-3
Format/Info : Audio Coding 3
Commercial name : Dolby Digital
Codec ID : A_AC3
Duration : 1 h 41 min
Bit rate mode : Constant
Bit rate : 384 kb/s
Channel(s) : 6 channels
Channel layout : L R C LFE Ls Rs
Sampling rate : 48.0 kHz
Frame rate : 31.250 FPS (1536 SPF)
Bit depth : 16 bits
Compression mode : Lossy
Stream size : 280 MiB (4%)
Title : KerobTV
Language : Russian
Service kind : Complete Main
Default : Yes
Forced : No

Audio #2
ID : 3
Format : E-AC-3
Format/Info : Enhanced AC-3
Commercial name : Dolby Digital Plus
Codec ID : A_EAC3
Duration : 1 h 41 min
Bit rate mode : Constant
Bit rate : 640 kb/s
Channel(s) : 6 channels
Channel layout : L R C LFE Ls Rs
Sampling rate : 48.0 kHz
Frame rate : 31.250 FPS (1536 SPF)
Compression mode : Lossy
Stream size : 467 MiB (7%)
Language : English
Service kind : Complete Main
Default : No
Forced : No

Text #1
ID : 4
Format : UTF-8
Codec ID : S_TEXT/UTF8
Codec ID/Info : UTF-8 Plain Text
Duration : 1 h 38 min
Bit rate : 34 b/s
Count of elements : 903
Stream size : 24.7 KiB (0%)
Language : English
Default : No
Forced : No

Text #2
ID : 5
Format : UTF-8
Codec ID : S_TEXT/UTF8
Codec ID/Info : UTF-8 Plain Text
Duration : 1 h 38 min
Bit rate : 37 b/s
Count of elements : 1011
Stream size : 27.1 KiB (0%)
Title : SDH
Language : English
Default : No
Forced : No

Menu
00:00:00.000 : en:1
00:03:24.000 : en:2
00:12:21.000 : en:3
00:20:46.000 : en:4
00:29:25.000 : en:5
00:38:42.000 : en:6
00:47:46.000 : en:7
00:56:55.000 : en:8
01:08:26.000 : en:9
01:18:10.000 : en:10
01:27:26.000 : en:11
01:36:16.000 : en:12
Скриншоты
 

Вложения

  • 17,1 KB Просмотры: 1
    Личеров 0
    Сидеров 0
    Файлов 1
    Объем 6,5 GB

Привет!

Мы группа людей которые решили помочь другим в решении их проблем, а так же пользователям с поиском самых свежих и качественных инфопродуктов. За 4 с небольшим месяца мы создали этот форум на который заходят ежедневно тысячи человек и посещаемость постоянно растёт. Мы создали панель лицензирования для защиты PHP скриптов от воровства и SEO панель для мониторинга наших сайтов и выбора верной стратегии их развития. Мы надеемся что то что мы создали пригодится Вам и возможно Вы поможете нам развиваться и совершенствоваться вместе с Вами.

Статистика форума

Темы
410.864
Сообщения
469.404
Пользователи
87.833
Новый пользователь
Светлана91

Приложения форума для iOS и Android


У ркн там нет власти ;)
Приватные разговоры
Помощь Пользователи
    Вы не присоединились ни к одной комнате.