За последнюю неделю опубликовано 82 новых материалов.
Инструкция новичку Путеводитель по форуму Прокси для Telegram Показать подсказки , это бомба!

Скачать Буттоби / Buttobi!! CPU / I Dream of Mimi [S01] (1997) DVDRip-AVC | L1 бесплатно через торрент

  • Поучаствуй (в качестве покупателя) в любых пяти совместных покупках (кроме завершённых и "Моментальных") и получи группу "Новичок" навсегда -> ссылка на раздел
  • Получай до 480 рублей за каждого приглашенного пользователя!
    представляем Вам очередное расширение партнерской программы, подробности описаны тут -> ссылка
  • 90% материалов доступно к скачиванию после простой регистрации!
    Если же ты хочешь скачивать материалы без требования оставлять отзывы то получи группу "Новичок", 10 способов повышения описаны тут -> ссылка
  • К сожалению количество битых ссылок растет и мы уже не можем их оперативно восстанавливать поэтому просим помощи у каждого нашего пользователя.
    С сегодняшнего дня, за каждую восстановленную ссылку мы заплатим Вам.
    Подробнее тут -> ссылка
  • Перенесем твои заслуги с другого ресурса!
    Мы понимаем как сложно прокачивать аккаунты на форумах, вроде раскачал аккаунт, а тут появляется ресурс в 100 раз круче но тоже с системой прокачки и снова качать аккаунт...
    Предлагаем вам перенести Ваши заслуги на другом подобном ресурсе к нам.
    Подробности описаны тут -> ссылка
  • Вы можете получать по 2.5% с каждой покупки и продажи на маркете! Подробности в теме Партнёрская программа

Torrent_Bot

Торрент-Бот
Бот форума
4 Окт 2016
104
152
20


Информация о фильме
Название: Буттоби / Я мечтаю о Мими / Сюрприз!! ЦП
Оригинальное название: Buttobi!! CPU
Год выхода: 1997
Жанр: Комедия, фантастика, этти, эротика
Режиссер: Хидака Масамицу
Автор оригинала: Синтани Каору
Страна: Япония
Студия: OLM
Тип: OVA
Продолжительность: 03 x ~00:30:00

Описание:
В течение трёх лет Акира жил только ради компьютеров. Когда модель 9821 поступила в продажу, он бежит в магазин, чтобы купить её, но последний компьютер был продан за пять минут до его прихода. Огорчённо идя домой, он встречает человека в переулке, у которого случайно оказался тот самый компьютер. Взволнованный, он покупает его и бежит домой, где обнаруживает, что вместо 9821 он купил 2198 - передовую биомеханическую компьютерную девочку по имени Mimi.



Озвучивание: Любительское (одноголосое, закадровое) Cuba77

Субтитры: Русские, английские

Файл
Кодек: x264 | Качество: DVDRip-AVC
Видео: AVC/H264, 640х480, 720 kbps, 23.976 fps
Аудио 1: rus, AAC LC, 41.1 khz, 2.0 ch, ~96 kbps, vbr | Cuba77 (пер. Witwood)
Аудио 2: jpn, AAC LC, 48.0 khz, 2.0 ch, ~200 kbps, vbr | Original
Аудио 3: eng, AAC LC, 48.0 khz, 2.0 ch, ~98 kbps, vbr | Dubbing

Скриншоты

MediaInfo
General
Unique ID : 152958591249038467621453105602431122387 (0x7312C0CC1093D170E2367A2088197BD3)
Complete name : 01. Экстремальный доступ.mkv
Format : Matroska
Format version : Version 4
File size : 219 MiB
Duration : 27 min 19 s
Overall bit rate : 1 120 kb/s
Encoded date : UTC 2020-06-07 19:58:35
Writing application : mkvmerge v40.0.0 ('Old Town Road + Pony') 64-bit
Writing library : libebml v1.3.9 + libmatroska v1.5.2

Video
ID : 1
Format : AVC
Format/Info : Advanced Video Codec
Format profile : High@L3
Format settings : CABAC / 6 Ref Frames
Format settings, CABAC : Yes
Format settings, Reference fra : 6 frames
Codec ID : V_MPEG4/ISO/AVC
Duration : 27 min 19 s
Bit rate : 720 kb/s
Width : 640 pixels
Height : 480 pixels
Display aspect ratio : 4:3
Frame rate mode : Constant
Frame rate : 23.976 (24000/1001) FPS
Color space : YUV
Chroma subsampling : 4:2:0
Bit depth : 8 bits
Scan type : Progressive
Bits/(Pixel*Frame) : 0.098
Stream size : 141 MiB (64%)
Title : Video
Writing library : x264 core 148 r2638 7599210
Encoding settings : cabac=1 / ref=6 / deblock=1:1:1 / analyse=0x3:0x113 / me=hex / subme=7 / psy=1 / psy_rd=0.40:0.00 / mixed_ref=1 / me_range=16 / chroma_me=1 / trellis=1 / 8x8dct=1 / cqm=0 / deadzone=21,11 / fast_pskip=1 / chroma_qp_offset=-2 / threads=3 / lookahead_threads=1 / sliced_threads=0 / nr=0 / decimate=1 / interlaced=0 / bluray_compat=0 / constrained_intra=0 / bframes=5 / b_pyramid=2 / b_adapt=1 / b_bias=0 / direct=1 / weightb=1 / open_gop=0 / weightp=2 / keyint=240 / keyint_min=23 / scenecut=40 / intra_refresh=0 / rc_lookahead=40 / rc=2pass / mbtree=1 / bitrate=720 / ratetol=1.0 / qcomp=0.60 / qpmin=0 / qpmax=69 / qpstep=4 / cplxblur=20.0 / qblur=0.5 / ip_ratio=1.40 / aq=1:0.60
Language : Japanese
Default : Yes
Forced : No

Audio #1
ID : 2
Format : AAC LC
Format/Info : Advanced Audio Codec Low Complexity
Codec ID : A_AAC-2
Duration : 27 min 19 s
Bit rate : 96.0 kb/s
Channel(s) : 2 channels
Channel layout : L R
Sampling rate : 44.1 kHz
Frame rate : 43.066 FPS (1024 SPF)
Compression mode : Lossy
Stream size : 18.9 MiB (9%)
Title : Cuba77 (пер. Witwood)
Language : Russian
Default : Yes
Forced : No

Audio #2
ID : 3
Format : AAC LC
Format/Info : Advanced Audio Codec Low Complexity
Codec ID : A_AAC-2
Duration : 27 min 19 s
Bit rate : 201 kb/s
Channel(s) : 2 channels
Channel layout : L R
Sampling rate : 48.0 kHz
Frame rate : 46.875 FPS (1024 SPF)
Compression mode : Lossy
Stream size : 39.3 MiB (18%)
Title : Original
Language : Japanese
Default : No
Forced : No

Audio #3
ID : 4
Format : AAC LC
Format/Info : Advanced Audio Codec Low Complexity
Codec ID : A_AAC-2
Duration : 27 min 19 s
Bit rate : 98.7 kb/s
Channel(s) : 2 channels
Channel layout : L R
Sampling rate : 48.0 kHz
Frame rate : 46.875 FPS (1024 SPF)
Compression mode : Lossy
Stream size : 19.3 MiB (9%)
Title : Dubbing
Language : English
Default : No
Forced : No

Menu
00:00:00.000 : ru:Пролог
00:00:46.380 : ru:Опенинг
00:02:03.373 : ru:Часть А
00:14:07.847 : ru:Часть В
00:24:40.479 : ru:Эндинг
00:26:48.899 : ru:В следующей серии

Эпизоды
01. Extreme Access
02. Gentle Hang Up
03. Graceful Reset
 

Вложения

  • 15 KB Просмотры: 0
    Личеров 0
    Сидеров 0
    Файлов 17
    Объем 661,7 MB

Привет!

Мы группа людей которые решили помочь другим в решении их проблем, а так же пользователям с поиском самых свежих и качественных инфопродуктов. За 4 с небольшим месяца мы создали этот форум на который заходят ежедневно тысячи человек и посещаемость постоянно растёт. Мы создали панель лицензирования для защиты PHP скриптов от воровства и SEO панель для мониторинга наших сайтов и выбора верной стратегии их развития. Мы надеемся что то что мы создали пригодится Вам и возможно Вы поможете нам развиваться и совершенствоваться вместе с Вами.

Статистика форума

Темы
404.542
Сообщения
461.448
Пользователи
80.087
Новый пользователь
viktor1823

Приложения форума для iOS и Android


У ркн там нет власти ;)
Приватные разговоры
Помощь Пользователи
    Вы не присоединились ни к одной комнате.