За последнюю неделю опубликовано 34 новых материалов.
Инструкция новичку Путеводитель по форуму Прокси для Telegram Показать подсказки , это бомба!

Скачать Буйнопомешанные / Псих в тюряге / Stir Crazy (1980) BDRip-AVC | P, A бесплатно через торрент

  • Поучаствуй (в качестве покупателя) в любых пяти совместных покупках (кроме завершённых и "Моментальных") и получи группу "Новичок" навсегда -> ссылка на раздел
  • Получай до 480 рублей за каждого приглашенного пользователя!
    представляем Вам очередное расширение партнерской программы, подробности описаны тут -> ссылка
  • 90% материалов доступно к скачиванию после простой регистрации!
    Если же ты хочешь скачивать материалы без требования оставлять отзывы то получи группу "Новичок", 10 способов повышения описаны тут -> ссылка
  • К сожалению количество битых ссылок растет и мы уже не можем их оперативно восстанавливать поэтому просим помощи у каждого нашего пользователя.
    С сегодняшнего дня, за каждую восстановленную ссылку мы заплатим Вам.
    Подробнее тут -> ссылка
  • Перенесем твои заслуги с другого ресурса!
    Мы понимаем как сложно прокачивать аккаунты на форумах, вроде раскачал аккаунт, а тут появляется ресурс в 100 раз круче но тоже с системой прокачки и снова качать аккаунт...
    Предлагаем вам перенести Ваши заслуги на другом подобном ресурсе к нам.
    Подробности описаны тут -> ссылка
  • Вы можете получать по 2.5% с каждой покупки и продажи на маркете! Подробности в теме Партнёрская программа
Если Вы не хотите скачивать, Вы всегда можетепосмотретьонлайн, просто нажмите кнопку ниже :

Открыть плеер

Torrent_Bot

Торрент-Бот
Бот форума
4 Окт 2016
93
160
20



Информация о фильме:
Название: Буйнопомешанные / Псих в тюряге
Оригинальное название: Stir Crazy
Год выхода: 1980
Жанр: комедия, криминал
Режиссер: Сидни Пуатье
В ролях: Джин Уайлдер, Ричард Прайор, Георг Стэнфорд Браун, ДжоБет Уильямс, Мигель Анхель Суарес, Крэйг Т. Нельсон, Бэрри Корбин, Чарльз Уэлдон, Николас Костер, Джоэл Брукс

О фильме:
Приятели, Скип и Харри, по ложному обвинению в ограблении банка были приговорены к солидному сроку заключения. У друзей возникают большие трудности с адаптацией к непривычным условиям тюрьмы.

И так бы они и чувствовали себя изгоями и неудачниками среди остальных заключённых, но однажды их охраннику приходит блестящая идея, как использовать Скипа и его таланты на предстоящем тюремном родео. Харри будет на подхвате.



Страна: США
Продолжительность: 01:51:03
Перевод 1: Профессиональный (многоголосый закадровый) первый канал
Перевод 2: Авторский (одноголосый закадровый) Михалев
Субтитры: английские
Оригинальная аудиодорожка: английский

Файл
Качество видео: BDRip-AVC [BDRemux 1080p AVC ~23 MBit/s]
Формат видео: MKV
Видео: AVC, 1008x546, 23.976 fps, ~3176 kBit/s
Аудио 1: MVO первый канал, AC3, ~192 kBit/s, 48 kHz, 2.0 DD
Аудио 2: AVO Михалёв, AC3, ~192 kBit/s, 48 kHz, 2.0 DD
Аудио 3: English, AC3, ~192 kBit/s, 48 kHz, 2.0 DD

M/I
General
Unique ID : 175825435482079399500995327150803981145 (0x8446BF431FD548D3A9EDDF4454A91359)
Complete name : F:FILMS___ - R - ___Stir Crazy.mkv
Format : Matroska
Format version : Version 2
File size : 2.91 GiB
Duration : 1h 51mn
Overall bit rate : 3 754 Kbps
Encoded date : UTC 2012-10-29 20:23:59
Writing application : mkvmerge v5.6.0 ('Kenya Kane') built on May 27 2012 16:44:04
Writing library : libebml v1.2.3 + libmatroska v1.3.0

Video
ID : 1
Format : AVC
Format/Info : Advanced Video Codec
Format profile : [email protected]
Format settings, CABAC : Yes
Format settings, ReFrames : 14 frames
Codec ID : V_MPEG4/ISO/AVC
Duration : 1h 51mn
Bit rate : 3 176 Kbps
Width : 1 008 pixels
Height : 546 pixels
Display aspect ratio : 1.85:1
Frame rate : 23.976 fps
Color space : YUV
Chroma subsampling : 4:2:0
Bit depth : 8 bits
Scan type : Progressive
Bits/(Pixel*Frame) : 0.241
Stream size : 2.41 GiB (83%)
Title : AVC [email protected] fps ~3176 kBit/s 2-pass High 4.1
Writing library : x264 core 122 r2184bm 5c85e0a
Encoding settings : cabac=1 / ref=14 / deblock=1:-1:-1 / analyse=0x3:0x133 / me=umh / subme=10 / psy=1 / psy_rd=1.05:0.05 / mixed_ref=1 / me_range=48 / chroma_me=1 / trellis=2 / 8x8dct=1 / cqm=0 / deadzone=21,11 / fast_pskip=0 / chroma_qp_offset=-3 / threads=6 / sliced_threads=0 / nr=0 / decimate=0 / interlaced=0 / bluray_compat=0 / constrained_intra=0 / bframes=10 / b_pyramid=2 / b_adapt=2 / b_bias=0 / direct=3 / weightb=1 / open_gop=0 / weightp=2 / keyint=250 / keyint_min=23 / scenecut=40 / intra_refresh=0 / rc=2pass / mbtree=0 / bitrate=3176 / ratetol=1.0 / qcomp=0.90 / qpmin=0 / qpmax=69 / qpstep=4 / cplxblur=20.0 / qblur=0.5 / ip_ratio=1.40 / pb_ratio=1.35 / aq=2:1.15
Language : English
Default : Yes
Forced : No

Audio #1
ID : 2
Format : AC-3
Format/Info : Audio Coding 3
Mode extension : CM (complete main)
Format settings, Endianness : Big
Codec ID : A_AC3
Duration : 1h 51mn
Bit rate mode : Constant
Bit rate : 192 Kbps
Channel(s) : 2 channels
Channel positions : Front: L R
Sampling rate : 48.0 KHz
Bit depth : 16 bits
Compression mode : Lossy
Stream size : 153 MiB (5%)
Title : MVO первый канал AC3 ~192 kBit/s 48 kHz 2.0 DD
Language : Russian
Default : Yes
Forced : No

Audio #2
ID : 3
Format : AC-3
Format/Info : Audio Coding 3
Mode extension : CM (complete main)
Format settings, Endianness : Big
Codec ID : A_AC3
Duration : 1h 51mn
Bit rate mode : Constant
Bit rate : 192 Kbps
Channel(s) : 2 channels
Channel positions : Front: L R
Sampling rate : 48.0 KHz
Bit depth : 16 bits
Compression mode : Lossy
Stream size : 153 MiB (5%)
Title : AVO Михалёв AC3 ~192 kBit/s 48 kHz 2.0 DD
Language : Russian
Default : No
Forced : No

Audio #3
ID : 4
Format : AC-3
Format/Info : Audio Coding 3
Mode extension : CM (complete main)
Format settings, Endianness : Big
Codec ID : A_AC3
Duration : 1h 51mn
Bit rate mode : Constant
Bit rate : 192 Kbps
Channel(s) : 2 channels
Channel positions : Front: L R
Sampling rate : 48.0 KHz
Bit depth : 16 bits
Compression mode : Lossy
Stream size : 153 MiB (5%)
Title : English AC3 ~192 kBit/s 48 kHz 2.0 DD
Language : Russian
Default : No
Forced : No

Text
ID : 5
Format : UTF-8
Codec ID : S_TEXT/UTF8
Codec ID/Info : UTF-8 Plain Text
Language : English
Default : No
Forced : No
Скриншоты
 

Вложения

  • 15,5 KB Просмотры: 0
    Личеров 0
    Сидеров 0
    Файлов 1
    Объем 2,9 GB

Привет!

Мы группа людей которые решили помочь другим в решении их проблем, а так же пользователям с поиском самых свежих и качественных инфопродуктов. За 4 с небольшим месяца мы создали этот форум на который заходят ежедневно тысячи человек и посещаемость постоянно растёт. Мы создали панель лицензирования для защиты PHP скриптов от воровства и SEO панель для мониторинга наших сайтов и выбора верной стратегии их развития. Мы надеемся что то что мы создали пригодится Вам и возможно Вы поможете нам развиваться и совершенствоваться вместе с Вами.

Статистика форума

Темы
406.601
Сообщения
464.985
Пользователи
84.249
Новый пользователь
52963

Приложения форума для iOS и Android


У ркн там нет власти ;)
Приватные разговоры
Помощь Пользователи
    Вы не присоединились ни к одной комнате.