За последнюю неделю опубликовано 31 новых материалов.
Инструкция новичку Путеводитель по форуму Прокси для Telegram Показать подсказки , это бомба!

Скачать Bruce Springsteen - Western Stars [24bit Hi-Res] (2019) FLAC бесплатно через торрент

  • Поучаствуй (в качестве покупателя) в любых пяти совместных покупках (кроме завершённых и "Моментальных") и получи группу "Новичок" навсегда -> ссылка на раздел
  • Получай до 480 рублей за каждого приглашенного пользователя!
    представляем Вам очередное расширение партнерской программы, подробности описаны тут -> ссылка
  • 90% материалов доступно к скачиванию после простой регистрации!
    Если же ты хочешь скачивать материалы без требования оставлять отзывы то получи группу "Новичок", 10 способов повышения описаны тут -> ссылка
  • К сожалению количество битых ссылок растет и мы уже не можем их оперативно восстанавливать поэтому просим помощи у каждого нашего пользователя.
    С сегодняшнего дня, за каждую восстановленную ссылку мы заплатим Вам.
    Подробнее тут -> ссылка
  • Перенесем твои заслуги с другого ресурса!
    Мы понимаем как сложно прокачивать аккаунты на форумах, вроде раскачал аккаунт, а тут появляется ресурс в 100 раз круче но тоже с системой прокачки и снова качать аккаунт...
    Предлагаем вам перенести Ваши заслуги на другом подобном ресурсе к нам.
    Подробности описаны тут -> ссылка
  • Вы можете получать по 2.5% с каждой покупки и продажи на маркете! Подробности в теме Партнёрская программа

Torrent_Bot

Торрент-Бот
Бот форума
4 Окт 2016
91
163
20



Исполнитель: Bruce Springsteen
Название: Western Stars
Страна: USA
Жанр: Rock
Год: 2019
Продолжительность: 00:50:43
Битрейт аудио: Lossless
Формат/Кодек: FLAC
Тип рипа: tracks
Разрядность: 24/96
Количество каналов: 2.0


01. Hitch Hikin' (3:36)
02. The Wayfarer (4:18)
03. Tucson Train (3:29)
04. Western Stars (4:39)
05. Sleepy Joe's Café (3:13)
06. Drive Fast (The Stuntman) (4:16)
07. Chasin' Wild Horses (5:03)
08. Sundown (3:15)
09. Somewhere North of Nashville (1:53)
10. Stones (4:45)
11. There Goes My Miracle (4:03)
12. Hello Sunshine (3:54)
13. Moonlight Motel (4:19)
DR
foobar2000 1.4.4 / Замер динамического диапазона (DR) 1.1.1
Дата отчёта: 2019-06-14 06:36:30

--------------------------------------------------------------------------------
Анализ: Bruce Springsteen / Western Stars
--------------------------------------------------------------------------------

DR Пики RMS Продолжительность трека
--------------------------------------------------------------------------------
DR9 -0.09 дБ -11.56 дБ 3:37 01-Hitch Hikin'
DR7 -0.09 дБ -10.22 дБ 4:18 02-The Wayfarer
DR6 -0.10 дБ -8.06 дБ 3:31 03-Tucson Train
DR6 -0.09 дБ -10.32 дБ 4:41 04-Western Stars
DR7 -0.08 дБ -8.26 дБ 3:14 05-Sleepy Joe's Café
DR7 -0.09 дБ -10.46 дБ 4:17 06-Drive Fast (The Stuntman)
DR7 -0.09 дБ -10.53 дБ 5:03 07-Chasin' Wild Horses
DR7 -0.10 дБ -8.76 дБ 3:18 08-Sundown
DR8 -0.10 дБ -12.01 дБ 1:53 09-Somewhere North of Nashville
DR7 -0.08 дБ -9.16 дБ 4:45 10-Stones
DR6 -0.09 дБ -7.69 дБ 4:05 11-There Goes My Miracle
DR6 -0.10 дБ -8.35 дБ 3:56 12-Hello Sunshine
DR9 -0.10 дБ -11.45 дБ 4:16 13-Moonlight Motel
--------------------------------------------------------------------------------

Количество треков: 13
Реальные значения DR: DR7

Частота: 96000 Гц
Каналов: 2
Разрядность: 24
Битрейт: 2793 кбит/с
Кодек: FLAC
================================================================================
 

Вложения

  • 12 KB Просмотры: 1
    Личеров 0
    Сидеров 0
    Файлов 15
    Объем 1 GB

Привет!

Мы группа людей которые решили помочь другим в решении их проблем, а так же пользователям с поиском самых свежих и качественных инфопродуктов. За 4 с небольшим месяца мы создали этот форум на который заходят ежедневно тысячи человек и посещаемость постоянно растёт. Мы создали панель лицензирования для защиты PHP скриптов от воровства и SEO панель для мониторинга наших сайтов и выбора верной стратегии их развития. Мы надеемся что то что мы создали пригодится Вам и возможно Вы поможете нам развиваться и совершенствоваться вместе с Вами.

Статистика форума

Темы
410.494
Сообщения
469.061
Пользователи
85.800
Новый пользователь
kseniiiiia

Приложения форума для iOS и Android


У ркн там нет власти ;)
Приватные разговоры
Помощь Пользователи
    Вы не присоединились ни к одной комнате.