За последнюю неделю опубликовано 44 новых материалов.
Инструкция новичку Путеводитель по форуму Прокси для Telegram Показать подсказки , это бомба!

Скачать Бронкская история / A Bronx Tale (1993) BDRip 720p от NNNB | P, A бесплатно через торрент

  • Поучаствуй (в качестве покупателя) в любых пяти совместных покупках (кроме завершённых и "Моментальных") и получи группу "Новичок" навсегда -> ссылка на раздел
  • Получай до 480 рублей за каждого приглашенного пользователя!
    представляем Вам очередное расширение партнерской программы, подробности описаны тут -> ссылка
  • 90% материалов доступно к скачиванию после простой регистрации!
    Если же ты хочешь скачивать материалы без требования оставлять отзывы то получи группу "Новичок", 10 способов повышения описаны тут -> ссылка
  • К сожалению количество битых ссылок растет и мы уже не можем их оперативно восстанавливать поэтому просим помощи у каждого нашего пользователя.
    С сегодняшнего дня, за каждую восстановленную ссылку мы заплатим Вам.
    Подробнее тут -> ссылка
  • Перенесем твои заслуги с другого ресурса!
    Мы понимаем как сложно прокачивать аккаунты на форумах, вроде раскачал аккаунт, а тут появляется ресурс в 100 раз круче но тоже с системой прокачки и снова качать аккаунт...
    Предлагаем вам перенести Ваши заслуги на другом подобном ресурсе к нам.
    Подробности описаны тут -> ссылка
  • Вы можете получать по 2.5% с каждой покупки и продажи на маркете! Подробности в теме Партнёрская программа
Если Вы не хотите скачивать, Вы всегда можетепосмотретьонлайн, просто нажмите кнопку ниже :

Открыть плеер

Torrent_Bot

Торрент-Бот
Бот форума
4 Окт 2016
90
166
20

Название: Бронкская история
Оригинальное название: A Bronx Tale
Год выпуска: 1993
Жанр:Драма, криминал, экранизация
Выпущено: США, B.T. Films Inc., Cecchi Gori Pictures, Penta Entertainment, Price Entertainment, Tribeca Productions
Режиссер: Роберт Де Ниро
В ролях: Роберт Де Ниро, Чазз Пальминтери, Лилло Бранкато, Фрэнсис Капра, Тэрал Хикс, Кэтрин Нардуччи, Клем Касерта, Альфред Саукелли мл., Фрэнк Пьетранголаре, Джо Пеши
Перевод: Профессиональный многоголосый, Авторский одноголосый

Сюжет фильма:
Король бронкской мафии Сонни убил человека. Просто так. Из-за места на парковке. Среди бела дня вытащил пистолет и несколько раз выстрелил. Полиция узнала, что свидетелем преступления был 9-летний Колоджеро, и допросила мальчика. Но Калоджеро не выдавал Сонни. И попал в любимчики мафиози. Что сильно не понравилось водителю автобуса, отцу мальчика. С этого дня началось сотрудничество Сонни и Калоджеро, и, когда мальчик вырос, он не просто стал свидетелем других кровавых деяний своего босса, но и сам оказался на краю пропасти...



Качество: BDRip 720p
Контейнер (Расширение): MKV
Видео: 1280x720, 7355 Кбит/сек, 23,976 кадр/сек, 0,333 Бит/[Пиксели*Кадры]
Аудио №1: русский / AC3 / 5.1 / 48 kHz / 448 kbps / |Профессиональный многоголосый, Союз-Видео|
Аудио №2: русский / AC3 / 5.1 / 48 kHz / 384 kbps / |Профессиональный многоголосый, Екатеринбург Арт|
Аудио №3: русский / AC3 / 2.0 / 48 kHz / 192 kbps / |Авторский одноголосый, С.Визгунов|
Аудио №4: русский / AC3 / 2.0 / 48 kHz / 192 kbps / |Авторский одноголосый, Л.Володарский|
Аудио №5: русский / DTS / 2.0 / 48 kHz / 1509 kbps / |Авторский одноголосый, Ю.Живов|
Аудио №6: английский / LPCM / 5.1 / 48 kHz / 1536 kbps
Навигация по главам (Чаптеры): есть
Субтитры: Русские (2 вида), Английские
Продолжительность: 02:01:32

Автор рипа: Сообщество:
MediaInfo
Format : Matroska
Format version : Version 2
File size : 9.86 GiB
Duration : 2 h 1 min
Overall bit rate : 11.6 Mb/s
Movie name : A Bronx Tale.(1993).BDRip.720p.[denis100]
Encoded date : UTC 2018-09-02 08:34:28
Writing application : mkvmerge v5.8.0 ('No Sleep / Pillow') built on Sep 2 2012 15:37:04
Writing library : libebml v1.2.3 + libmatroska v1.3.0

Video
ID : 1
Format : AVC
Format/Info : Advanced Video Codec
Format profile : [email protected]
Format settings : CABAC / 9 Ref Frames
Format settings, CABAC : Yes
Format settings, ReFrames : 9 frames
Codec ID : V_MPEG4/ISO/AVC
Duration : 2 h 1 min
Nominal bit rate : 7 355 kb/s
Width : 1 280 pixels
Height : 720 pixels
Display aspect ratio : 16:9
Frame rate mode : Constant
Frame rate : 23.976 (24000/1001) FPS
Color space : YUV
Chroma subsampling : 4:2:0
Bit depth : 8 bits
Scan type : Progressive
Bits/(Pixel*Frame) : 0.333
Title : A Bronx Tale.(1993).BDRip.720p.[denis100]
Writing library : x264 core 155 r2901 7d0ff22
Encoding settings : cabac=1 / ref=9 / deblock=1:-3:-3 / analyse=0x3:0x113 / me=umh / subme=11 / psy=1 / psy_rd=1.00:0.10 / mixed_ref=1 / me_range=32 / chroma_me=1 / trellis=2 / 8x8dct=1 / cqm=0 / deadzone=21,11 / fast_pskip=0 / chroma_qp_offset=-3 / threads=6 / lookahead_threads=1 / sliced_threads=0 / nr=0 / decimate=1 / interlaced=0 / bluray_compat=0 / constrained_intra=0 / bframes=10 / b_pyramid=2 / b_adapt=2 / b_bias=0 / direct=3 / weightb=0 / open_gop=0 / weightp=2 / keyint=240 / keyint_min=23 / scenecut=40 / intra_refresh=0 / rc=2pass / mbtree=0 / bitrate=7355 / ratetol=1.0 / qcomp=0.60 / qpmin=0 / qpmax=69 / qpstep=4 / cplxblur=20.0 / qblur=0.5 / ip_ratio=1.40 / pb_ratio=1.30 / aq=1:0.90
Language : English
Default : Yes
Forced : No

Audio #1
ID : 2
Format : AC-3
Format/Info : Audio Coding 3
Codec ID : A_AC3
Duration : 2 h 1 min
Bit rate mode : Constant
Bit rate : 448 kb/s
Channel(s) : 6 channels
Channel positions : Front: L C R, Side: L R, LFE
Sampling rate : 48.0 kHz
Frame rate : 31.250 FPS (1536 SPF)
Bit depth : 16 bits
Compression mode : Lossy
Stream size : 389 MiB (4%)
Title : MVO, Союз-Видео
Language : Russian
Service kind : Complete Main
Default : Yes
Forced : No

Audio #2
ID : 3
Format : AC-3
Format/Info : Audio Coding 3
Codec ID : A_AC3
Duration : 2 h 1 min
Bit rate mode : Constant
Bit rate : 384 kb/s
Channel(s) : 6 channels
Channel positions : Front: L C R, Side: L R, LFE
Sampling rate : 48.0 kHz
Frame rate : 31.250 FPS (1536 SPF)
Bit depth : 16 bits
Compression mode : Lossy
Stream size : 334 MiB (3%)
Title : MVO, Екатеринбург Арт
Language : Russian
Service kind : Complete Main
Default : No
Forced : No

Audio #3
ID : 4
Format : AC-3
Format/Info : Audio Coding 3
Codec ID : A_AC3
Duration : 2 h 1 min
Bit rate mode : Constant
Bit rate : 192 kb/s
Channel(s) : 2 channels
Channel positions : Front: L R
Sampling rate : 48.0 kHz
Frame rate : 31.250 FPS (1536 SPF)
Bit depth : 16 bits
Compression mode : Lossy
Stream size : 167 MiB (2%)
Title : AVO, С.Визгунов
Language : Russian
Service kind : Complete Main
Default : No
Forced : No

Audio #4
ID : 5
Format : AC-3
Format/Info : Audio Coding 3
Codec ID : A_AC3
Duration : 2 h 1 min
Bit rate mode : Constant
Bit rate : 192 kb/s
Channel(s) : 2 channels
Channel positions : Front: L R
Sampling rate : 48.0 kHz
Frame rate : 31.250 FPS (1536 SPF)
Bit depth : 16 bits
Compression mode : Lossy
Stream size : 167 MiB (2%)
Title : AVO, Л.Володарский
Language : Russian
Service kind : Complete Main
Default : No
Forced : No

Audio #5
ID : 6
Format : DTS
Format/Info : Digital Theater Systems
Codec ID : A_DTS
Duration : 2 h 1 min
Bit rate mode : Constant
Bit rate : 1 509 kb/s
Channel(s) : 2 channels
Channel positions : Front: L R
Sampling rate : 48.0 kHz
Frame rate : 93.750 FPS (512 SPF)
Bit depth : 16 bits
Compression mode : Lossy
Stream size : 1.28 GiB (13%)
Title : AVO, Ю.Живов
Language : Russian
Default : No
Forced : No

Audio #6
ID : 7
Format : PCM
Format settings : Little / Signed
Codec ID : A_PCM/INT/LIT
Duration : 2 h 1 min
Bit rate mode : Constant
Channel(s) : 2 channels
Sampling rate : 48.0 kHz
Bit depth : 16 bits
Language : English
Default : No
Forced : No

Text #1
ID : 8
Format : UTF-8
Codec ID : S_TEXT/UTF8
Codec ID/Info : UTF-8 Plain Text
Title : Союз-Видео
Language : Russian
Default : No
Forced : No

Text #2
ID : 9
Format : UTF-8
Codec ID : S_TEXT/UTF8
Codec ID/Info : UTF-8 Plain Text
Title : Екатеринбург Арт
Language : Russian
Default : No
Forced : No

Text #3
ID : 10
Format : UTF-8
Codec ID : S_TEXT/UTF8
Codec ID/Info : UTF-8 Plain Text
Language : English
Default : No
Forced : No

Menu
00:00:00.000 : en:00:00:00.000
00:12:44.680 : en:00:12:44.680
00:25:32.113 : en:00:25:32.113
00:33:09.445 : en:00:33:09.445
00:46:20.527 : en:00:46:20.527
00:54:55.333 : en:00:54:55.333
01:04:19.021 : en:01:04:19.021
01:11:43.298 : en:01:11:43.298
01:23:00.892 : en:01:23:00.892
01:28:50.700 : en:01:28:50.700
01:40:22.933 : en:01:40:22.933
01:51:39.609 : en:01:51:39.609
Скриншоты
 

Вложения

  • 50,3 KB Просмотры: 1
    Личеров 0
    Сидеров 0
    Файлов 1
    Объем 9,9 GB

Привет!

Мы группа людей которые решили помочь другим в решении их проблем, а так же пользователям с поиском самых свежих и качественных инфопродуктов. За 4 с небольшим месяца мы создали этот форум на который заходят ежедневно тысячи человек и посещаемость постоянно растёт. Мы создали панель лицензирования для защиты PHP скриптов от воровства и SEO панель для мониторинга наших сайтов и выбора верной стратегии их развития. Мы надеемся что то что мы создали пригодится Вам и возможно Вы поможете нам развиваться и совершенствоваться вместе с Вами.

Статистика форума

Темы
410.887
Сообщения
469.449
Пользователи
87.915
Новый пользователь
kedex

Приложения форума для iOS и Android


У ркн там нет власти ;)
Приватные разговоры
Помощь Пользователи
    Вы не присоединились ни к одной комнате.