За последнюю неделю опубликовано 72 новых материалов.
Инструкция новичку Путеводитель по форуму Прокси для Telegram Показать подсказки , это бомба!

Скачать Бродяга Кэнсин / Самурай Икс / Rurouni Kenshin: Meiji Kenkaku Romantan [01-95 из 95] (1996-1998) DVDRip | D бесплатно через торрент

  • Поучаствуй (в качестве покупателя) в любых пяти совместных покупках (кроме завершённых и "Моментальных") и получи группу "Новичок" навсегда -> ссылка на раздел
  • Получай до 480 рублей за каждого приглашенного пользователя!
    представляем Вам очередное расширение партнерской программы, подробности описаны тут -> ссылка
  • 90% материалов доступно к скачиванию после простой регистрации!
    Если же ты хочешь скачивать материалы без требования оставлять отзывы то получи группу "Новичок", 10 способов повышения описаны тут -> ссылка
  • К сожалению количество битых ссылок растет и мы уже не можем их оперативно восстанавливать поэтому просим помощи у каждого нашего пользователя.
    С сегодняшнего дня, за каждую восстановленную ссылку мы заплатим Вам.
    Подробнее тут -> ссылка
  • Перенесем твои заслуги с другого ресурса!
    Мы понимаем как сложно прокачивать аккаунты на форумах, вроде раскачал аккаунт, а тут появляется ресурс в 100 раз круче но тоже с системой прокачки и снова качать аккаунт...
    Предлагаем вам перенести Ваши заслуги на другом подобном ресурсе к нам.
    Подробности описаны тут -> ссылка
  • Вы можете получать по 2.5% с каждой покупки и продажи на маркете! Подробности в теме Партнёрская программа

Torrent_Bot

Торрент-Бот
Бот форума
4 Окт 2016
102
157
20



Информация о фильме
Название: Бродяга Кэнсин
Оригинальное название: Rurouni Kenshin: Meiji Kenkaku Romantan
Год выхода: 1996-1998
Жанр: приключения, комедия, романтика, боевые искусства
Режиссер: Фурухаси Кадзухиро
В ролях: Сузуказе, Ричард Кансино, Дин Вайн, Дороти Элиас-Фан, Дина Шерман, Dan Lorge, Брианн Брози, Мики Фудзитани, Ёку Сиоя, Каори Юаса

О фильме:
Кэнсин Химура — бродяга с тёмным прошлым и израненной душой. Бывший наёмник в период реставрации Мэйдзи, он бродит по миру и помогает людям в надежде искупить содеянное.
Спустя 11 лет после реставрации Мэйдзи Кэнсин оказывается в Токио, где помогает девушке Каору Камии защитить её наследственное додзё от бандитов. Каору, зная о прошлом Кэнсина, позволяет тому остаться. И постепенно, не без помощи Химуры, в додзё собираются сирота Яхико, кулачный боец Саносукэ и доктор Мэгуми Такани. Вместе они ведут спокойную жизнь, наполненную весёлыми похождениями и шутливыми перепалками.
Однако мирная жизнь длится недолго, и вскоре мрачное прошлое Кэнсина даёт о себе знать.


Страна: Япония
Студия: Studio Gallop, Studio DEEN
Продолжительность: 00:23:40
Перевод: Дубляж | телеканал СТС

Файл
Кодек: x264
Качество: DVDRip
Видео: x264, 768x576, 2243 kbps, 24,589 fps
Звук:
Звук (Rus(int)): AC-3, 192 kbps, 48,0 KHz, 2 ch | [СТС]
Звук (Japanese): AC-3, 192 kbps, 48,0 KHz, 2 ch | [Original]
Субтитры: русские (встроенные полный перевод, SRT)

MediaInfo:
Видео
Идентификатор : 1
Формат : AVC
Формат/Информация : Advanced Video Codec
Профиль формата : High 10@L3.1
Настройки формата : CABAC / 9 Ref Frames
Параметр CABAC формата : Да
Параметр RefFrames формата : 9 кадров
Идентификатор кодека : V_MPEG4/ISO/AVC
Продолжительность : 23 м. 34 с.
Битрейт : 2 243 Кбит/сек
Ширина : 768 пикселей
Высота : 576 пикселей
Соотношение сторон : 4:3
Режим частоты кадров : Переменный
Частота кадров : 24,589 кадров/сек
Частота кадров в оригинале : 30,000 кадров/сек
Цветовое пространство : YUV
Субдискретизация насыщенности : 4:2:0
Битовая глубина : 10 бит
Тип развёртки : Прогрессивная
Бит/(Пиксели*Кадры) : 0.206
Размер потока : 378 Мбайт (85%)
Библиотека кодирования : x264 core 157 r2867+150 7e91e0e t_mod_Custom_2 [10-bit@all X86_64]

Аудио #1
Идентификатор : 2
Формат : AC-3
Формат/Информация : Audio Coding 3
Коммерческое название : Dolby Digital
Идентификатор кодека : A_AC3
Продолжительность : 23 м. 34 с.
Вид битрейта : Постоянный
Битрейт : 192 Кбит/сек
Каналы : 2 канала
Channel layout : L R
Частота : 48,0 КГц
Частота кадров : 31,250 кадров/сек (1536 SPF)
Метод сжатия : С потерями
Размер потока : 32,4 Мбайт (7%)
Заголовок : СТС
Язык : Russian
Service kind : Complete Main
Default : Да
Forced : Нет

Аудио #2
Идентификатор : 3
Формат : AC-3
Формат/Информация : Audio Coding 3
Коммерческое название : Dolby Digital
Идентификатор кодека : A_AC3
Продолжительность : 23 м. 34 с.
Вид битрейта : Постоянный
Битрейт : 192 Кбит/сек
Каналы : 2 канала
Channel layout : L R
Частота : 48,0 КГц
Частота кадров : 31,250 кадров/сек (1536 SPF)
Метод сжатия : С потерями
Размер потока : 32,4 Мбайт (7%)
Заголовок : Original
Язык : Japanese
Service kind : Complete Main
Default : Нет
Forced : Нет

Текст
Идентификатор : 4
Формат : UTF-8
Идентификатор кодека : S_TEXT/UTF8
Идентификатор кодека/Информация : UTF-8 Plain Text
Продолжительность : 23 м. 21 с.
Битрейт : 114 бит/сек
Count of elements : 351
Размер потока : 19,5 Кбайт (0%)
Заголовок : Полные субтитры
Язык : Russian
Default : Нет
Forced : Нет

Меню
00:01:34.080 : :Глава 01
00:21:33.312 : :Глава 02
00:23:13.390 : :Глава 03
Скриншоты
 

Вложения

  • 221,3 KB Просмотры: 0
    Личеров 0
    Сидеров 0
    Файлов 95
    Объем 43,1 GB

Привет!

Мы группа людей которые решили помочь другим в решении их проблем, а так же пользователям с поиском самых свежих и качественных инфопродуктов. За 4 с небольшим месяца мы создали этот форум на который заходят ежедневно тысячи человек и посещаемость постоянно растёт. Мы создали панель лицензирования для защиты PHP скриптов от воровства и SEO панель для мониторинга наших сайтов и выбора верной стратегии их развития. Мы надеемся что то что мы создали пригодится Вам и возможно Вы поможете нам развиваться и совершенствоваться вместе с Вами.

Статистика форума

Темы
405.450
Сообщения
462.439
Пользователи
80.495
Новый пользователь
РУС111273

Приложения форума для iOS и Android


У ркн там нет власти ;)
Приватные разговоры
Помощь Пользователи
    Вы не присоединились ни к одной комнате.