За последнюю неделю опубликовано 57 новых материалов.
Инструкция новичку Путеводитель по форуму Прокси для Telegram Показать подсказки , это бомба!

Скачать Братья Блюз / The Blues Brothers (1980) UHD BDRemux 2160p от селезень | 4K | HDR | P, A | Расширенная версия бесплатно через торрент

  • Поучаствуй (в качестве покупателя) в любых пяти совместных покупках (кроме завершённых и "Моментальных") и получи группу "Новичок" навсегда -> ссылка на раздел
  • Получай до 480 рублей за каждого приглашенного пользователя!
    представляем Вам очередное расширение партнерской программы, подробности описаны тут -> ссылка
  • 90% материалов доступно к скачиванию после простой регистрации!
    Если же ты хочешь скачивать материалы без требования оставлять отзывы то получи группу "Новичок", 10 способов повышения описаны тут -> ссылка
  • К сожалению количество битых ссылок растет и мы уже не можем их оперативно восстанавливать поэтому просим помощи у каждого нашего пользователя.
    С сегодняшнего дня, за каждую восстановленную ссылку мы заплатим Вам.
    Подробнее тут -> ссылка
  • Перенесем твои заслуги с другого ресурса!
    Мы понимаем как сложно прокачивать аккаунты на форумах, вроде раскачал аккаунт, а тут появляется ресурс в 100 раз круче но тоже с системой прокачки и снова качать аккаунт...
    Предлагаем вам перенести Ваши заслуги на другом подобном ресурсе к нам.
    Подробности описаны тут -> ссылка
  • Вы можете получать по 2.5% с каждой покупки и продажи на маркете! Подробности в теме Партнёрская программа
Если Вы не хотите скачивать, Вы всегда можетепосмотретьонлайн, просто нажмите кнопку ниже :

Открыть плеер

Torrent_Bot

Торрент-Бот
Бот форума
4 Окт 2016
92
163
20


Информация о фильме
Название: Братья Блюз
Оригинальное название: The Blues Brothers
Год выхода: 1980
Жанр: Мюзикл, боевик, комедия
Режиссер: Джон Лэндис
В ролях: Джон Белуши, Дэн Эйкройд, Джеймс Браун, Кэб Кэллоуэй, Рэй Чарльз, Арета Франклин, Стив Кроппер, Дональд Данн, Мёрфи Данн, Уилли Холл, Том Мэлоун, Лу Марини, Мэтт Мерфи, Алан Рубин, Кэрри Фишер, Генри Гибсон, Джон Кэнди, Кэтлин Фримен, Стив Лоуренс, Твигги, Фрэнк Оз, Джеф Моррис, Чарльз Нэпьер, Стивен Уильямс (I), Арман Черами, Том Эрхарт, Джералд Уоллин, Уолтер Ливайн, Алонсо Аткинс, Чака Кхан, Стивен Бишоп, Джон Лэндис, Кристи Олесон, Гари МакЛарти, Лэйн Бриттон, Тони Флеминг, Джудит Белуши-Писано, Рози Шустер, Пол Рубенс, Бен Пьяцца, Гвен Банта, Лари Тейлор, Синди Фишер, Элизабет Хой, Тони М. Конде, Юджин Дж. Энтони, Дин Хилл, Гэри Хьюстон



О фильме: Братья-музыканты Джейк и Элвуд Блюзы узнают, что их родная церковь будет снесена, если за нее вовремя не внесут плату в 5 тысяч долларов. На поиск денег у братьев не много времени, и они решают дать концерт. Однако Джейк только что вышел из тюрьмы, а у Элвуда свои неприятности с законом, и добраться до них мечтают все кому не лень: полиция, бандиты, неонацисты. Прежде чем спасти церковь, братья Блюз устроят настоящий беспредел на улицах Чикаго…

Страна: США
Студия: Universal Pictures
Продолжительность: 02:27:46
Перевод(ы):
#1: Профессиональный многоголосый | Киномания
#2: Авторский | Гаврилов
#3: Авторский | Володарский
#4: Авторский | Иванов
#5: Авторский | Михалев

Качество: BDRemux 2160p
Видео: 3840x2160 at 23.976 fps, MPEG-H HEVC HDR Video, 38000 kbps avg
Аудио #01: 48 kHz, AC3, 5.1, 384 Kbps | Киномания | RUS |
Аудио #02: 48 kHz, AC3, 2.0, 192 Kbps | Гаврилов | RUS |
Аудио #03: 48 kHz, AC3, 2.0, 192 Kbps | Володарский | RUS |
Аудио #04: 48 kHz, AC3, 2.0, 192 Kbps | Иванов | RUS |
Аудио #05: 48 kHz, AC3, 5.1, 448 Kbps | Михалев | RUS |
Аудио #06: 48 kHz, DTS:X, 7.1, 6541 Kbps | Оригинал | ENG |
Субтитры: Русские (2 x Full), английские



MI
General
Unique ID : 219626578491515577852248307921229366791 (0xA53A8A584F8177F22351F6855A3AC607)
Complete name : E:Video111The.Blues.Brothers.1980.Ext.BDREMUX.2160p.seleZen.mkv
Format : Matroska
Format version : Version 4
File size : 47.4 GiB
Duration : 2 h 27 min
Overall bit rate mode : Variable
Overall bit rate : 45.9 Mb/s
Movie name : The Blues Brothers 1980 (Extended) from селезень
Encoded date : UTC 2020-05-24 22:12:36
Writing application : mkvmerge v40.0.0 ('Old Town Road + Pony') 64-bit
Writing library : libebml v1.3.9 + libmatroska v1.5.2

Video
ID : 1
Format : HEVC
Format/Info : High Efficiency Video Coding
Format profile : Main [email protected]@High
HDR format : SMPTE ST 2086, HDR10 compatible
Codec ID : V_MPEGH/ISO/HEVC
Duration : 2 h 27 min
Bit rate : 38.0 Mb/s
Width : 3 840 pixels
Height : 2 160 pixels
Display aspect ratio : 16:9
Frame rate mode : Constant
Frame rate : 23.976 (24000/1001) FPS
Color space : YUV
Chroma subsampling : 4:2:0 (Type 2)
Bit depth : 10 bits
Bits/(Pixel*Frame) : 0.191
Stream size : 39.2 GiB (83%)
Writing library : ATEME Titan File 3.9.0 (4.9.0.0)
Language : English
Default : Yes
Forced : No
Color range : Limited
Color primaries : BT.2020
Transfer characteristics : PQ
Matrix coefficients : BT.2020 non-constant
Mastering display color pri : Display P3
Mastering display luminance : min: 0.0050 cd/m2, max: 1000 cd/m2
Maximum Content Light Level : 989 cd/m2
Maximum Frame-Average Light : 135 cd/m2

Audio #1
ID : 2
Format : AC-3
Format/Info : Audio Coding 3
Commercial name : Dolby Digital
Codec ID : A_AC3
Duration : 2 h 27 min
Bit rate mode : Constant
Bit rate : 384 kb/s
Channel(s) : 6 channels
Channel layout : L R C LFE Ls Rs
Sampling rate : 48.0 kHz
Frame rate : 31.250 FPS (1536 SPF)
Compression mode : Lossy
Stream size : 406 MiB (1%)
Title : MVO [Киномания]
Language : Russian
Service kind : Complete Main
Default : Yes
Forced : Yes

Audio #2
ID : 3
Format : AC-3
Format/Info : Audio Coding 3
Commercial name : Dolby Digital
Codec ID : A_AC3
Duration : 2 h 27 min
Bit rate mode : Constant
Bit rate : 192 kb/s
Channel(s) : 2 channels
Channel layout : L R
Sampling rate : 48.0 kHz
Frame rate : 31.250 FPS (1536 SPF)
Compression mode : Lossy
Stream size : 203 MiB (0%)
Title : AVO [Андрей Гаврилов]
Language : Russian
Service kind : Complete Main
Default : No
Forced : No

Audio #3
ID : 4
Format : AC-3
Format/Info : Audio Coding 3
Commercial name : Dolby Digital
Codec ID : A_AC3
Duration : 2 h 27 min
Bit rate mode : Constant
Bit rate : 192 kb/s
Channel(s) : 2 channels
Channel layout : L R
Sampling rate : 48.0 kHz
Frame rate : 31.250 FPS (1536 SPF)
Compression mode : Lossy
Stream size : 203 MiB (0%)
Title : AVO [Леонид Володарский]
Language : Russian
Service kind : Complete Main
Default : No
Forced : No

Audio #4
ID : 5
Format : AC-3
Format/Info : Audio Coding 3
Commercial name : Dolby Digital
Codec ID : A_AC3
Duration : 2 h 27 min
Bit rate mode : Constant
Bit rate : 192 kb/s
Channel(s) : 2 channels
Channel layout : L R
Sampling rate : 48.0 kHz
Frame rate : 31.250 FPS (1536 SPF)
Compression mode : Lossy
Stream size : 203 MiB (0%)
Title : AVO [Михаил Иванов]
Language : Russian
Service kind : Complete Main
Default : No
Forced : No

Audio #5
ID : 6
Format : AC-3
Format/Info : Audio Coding 3
Commercial name : Dolby Digital
Codec ID : A_AC3
Duration : 2 h 27 min
Bit rate mode : Constant
Bit rate : 448 kb/s
Channel(s) : 6 channels
Channel layout : L R C LFE Ls Rs
Sampling rate : 48.0 kHz
Frame rate : 31.250 FPS (1536 SPF)
Compression mode : Lossy
Stream size : 474 MiB (1%)
Title : AVO [Алексей Михалев]
Language : Russian
Service kind : Complete Main
Default : No
Forced : No

Audio #6
ID : 7
Format : DTS XLL X
Format/Info : Digital Theater Systems
Commercial name : DTS-HD Master Audio
Codec ID : A_DTS
Duration : 2 h 27 min
Bit rate mode : Variable
Bit rate : 6 541 kb/s
Channel(s) : 8 channels
Channel(s)_Original : Object Based
ChannelLayout_Original : Object Based
Sampling rate : 48.0 kHz
Frame rate : 93.750 FPS (512 SPF)
Bit depth : 24 bits
Stream size : 6.75 GiB (14%)
Title : Original
Language : English
Default : No
Forced : No

Text #1
ID : 8
Format : UTF-8
Codec ID : S_TEXT/UTF8
Codec ID/Info : UTF-8 Plain Text
Duration : 2 h 16 min
Bit rate : 43 b/s
Count of elements : 1182
Stream size : 44.0 KiB (0%)
Title : Full [Киномания]
Language : Russian
Default : No
Forced : No

Text #2
ID : 9
Format : UTF-8
Codec ID : S_TEXT/UTF8
Codec ID/Info : UTF-8 Plain Text
Duration : 2 h 25 min
Bit rate : 61 b/s
Count of elements : 1087
Stream size : 65.4 KiB (0%)
Title : Full [With songs]
Language : Russian
Default : No
Forced : No

Text #3
ID : 10
Format : UTF-8
Codec ID : S_TEXT/UTF8
Codec ID/Info : UTF-8 Plain Text
Duration : 2 h 27 min
Bit rate : 47 b/s
Count of elements : 1889
Stream size : 51.1 KiB (0%)
Title : SDH
Language : English
Default : No
Forced : No

Menu
00:00:00.000 : en:Time Served (Main Titles)
00:10:13.071 : en:Tax Assessment
00:16:47.548 : en:Seeing The Light
00:23:59.772 : en:On A Mission From God
00:32:05.215 : en:Home Sweet Home
00:39:24.946 : en:Reassembling The Band
00:49:15.119 : en:Fine Dining
00:54:46.200 : en:Crashing The Party
01:00:09.981 : en:You Better Think!
01:07:12.612 : en:Twist & Shake
01:15:32.903 : en:Bob's Country Bunker
01:24:11.922 : en:Good Ole Boys
01:30:29.132 : en:Booking A Gig
01:41:04.350 : en:The Palace Hotel Show
01:55:14.032 : en:Waiting In Celibacy
02:03:11.968 : en:Maintain Pursuit
02:11:46.148 : en:paying The Taxes
02:18:52.741 : en:Jailhouse Rock (End Titles)

Релиз от:

 

Вложения

  • 60,2 KB Просмотры: 0
    Личеров 0
    Сидеров 0
    Файлов 1
    Объем 47,4 GB

Привет!

Мы группа людей которые решили помочь другим в решении их проблем, а так же пользователям с поиском самых свежих и качественных инфопродуктов. За 4 с небольшим месяца мы создали этот форум на который заходят ежедневно тысячи человек и посещаемость постоянно растёт. Мы создали панель лицензирования для защиты PHP скриптов от воровства и SEO панель для мониторинга наших сайтов и выбора верной стратегии их развития. Мы надеемся что то что мы создали пригодится Вам и возможно Вы поможете нам развиваться и совершенствоваться вместе с Вами.

Статистика форума

Темы
406.699
Сообщения
465.163
Пользователи
84.817
Новый пользователь
Lairi

Приложения форума для iOS и Android


У ркн там нет власти ;)
Приватные разговоры
Помощь Пользователи
    Вы не присоединились ни к одной комнате.