За последнюю неделю опубликовано 40 новых материалов.
Инструкция новичку Путеводитель по форуму Прокси для Telegram Показать подсказки , это бомба!

Скачать Босс, я люблю тебя / Boss, I love you / Lao banm, wo ai ni (2014) WEBRip бесплатно через торрент

  • Поучаствуй (в качестве покупателя) в любых пяти совместных покупках (кроме завершённых и "Моментальных") и получи группу "Новичок" навсегда -> ссылка на раздел
  • Получай до 480 рублей за каждого приглашенного пользователя!
    представляем Вам очередное расширение партнерской программы, подробности описаны тут -> ссылка
  • 90% материалов доступно к скачиванию после простой регистрации!
    Если же ты хочешь скачивать материалы без требования оставлять отзывы то получи группу "Новичок", 10 способов повышения описаны тут -> ссылка
  • К сожалению количество битых ссылок растет и мы уже не можем их оперативно восстанавливать поэтому просим помощи у каждого нашего пользователя.
    С сегодняшнего дня, за каждую восстановленную ссылку мы заплатим Вам.
    Подробнее тут -> ссылка
  • Перенесем твои заслуги с другого ресурса!
    Мы понимаем как сложно прокачивать аккаунты на форумах, вроде раскачал аккаунт, а тут появляется ресурс в 100 раз круче но тоже с системой прокачки и снова качать аккаунт...
    Предлагаем вам перенести Ваши заслуги на другом подобном ресурсе к нам.
    Подробности описаны тут -> ссылка
  • Вы можете получать по 2.5% с каждой покупки и продажи на маркете! Подробности в теме Партнёрская программа
Если Вы не хотите скачивать, Вы всегда можетепосмотретьонлайн, просто нажмите кнопку ниже :

Открыть плеер

Torrent_Bot

Торрент-Бот
Бот форума
4 Окт 2016
90
168
20
Информация о фильме
Название: Босс, я люблю тебя
Оригинальное название: Boss, I love you / Lao banm, wo ai ni / 老板,我爱你

Год выхода: 2014
Жанр: драма, гей-тема, короткометражный
Режиссер: Чжан Юань / Zhang Yuan
В ролях: Лу Юйлай (Lu Yulai), Ли Цюань (Li Quan), Ли Синьюнь (Li Xinyun)

О фильме:
Молодой парень работает водителем у босса крупной компании - симпатичного мужчины средних лет. Втайне шофёр влюблён в шефа и пытается ему всячески угодить. Они находятся в командировке, где руководитель компании заодно встречается со своей любовницей. Босс напивается до бесчувствия и шофёр отвозит его в гостиницу, чтобы уложить спать. Парня одолевает сильное желание совершить над отключившимся шефом нечто эдакое неподобающее. Но последствия могут быть страшными и непредсказуемыми...

Рекламы нет.

Страна: Китай
Продолжительность: 00:29:50
Перевод: не требуется (нет диалогов)

Файл
Качество: WEBRip
Формат: AVI
Видео: XviD; 720x400 (16:9); 25 кадров/сек; 1350 Кбит/сек
Звук: АС3; 48 КГц; 192 Кбит/сек; 2 канала

Семпл

Дополнительная информация:
Фильм редкий - информации о нём нет ни на КиноПоиске , ни на IMDb .
Необычность фильма ещё и в том , что в нём нет диалогов (звуки есть - шум автомобилей , шагов , скрип двери , кашель , но герои на протяжении 30 минут не разговаривают друг с другом) .
MediaInfo:
Общее
Формат : AVI
Формат/Информация : Audio Video Interleave
Размер файла : 331 Мбайт
Продолжительность : 29 м. 49 с.
Общий поток : 1551 Кбит/сек
Программа кодирования : VirtualDubMod 1.5.10.3 | www.virtualdub-fr.org || (build 2550/release)
Библиотека кодирования : VirtualDubMod build 2550/release

Видео
Идентификатор : 0
Формат : MPEG-4 Visual
Профиль формата : Advanced [email protected]
Настройки формата : BVOP2 / Custom Matrix
Параметр BVOP формата : 2
Параметр QPel формата : Нет
Параметр GMC формата : Без точки перехода
Параметр матрицы формата : Выборочная
Идентификатор кодека : XVID
Идентификатор кодека/Подсказка : XviD
Продолжительность : 29 м. 49 с.
Битрейт : 1350 Кбит/сек
Ширина : 720 пикселей
Высота : 400 пикселей
Соотношение сторон : 16:9
Частота кадров : 25,000 кадров/сек
Цветовое пространство : YUV
Субдискретизация насыщенности : 4:2:0
Битовая глубина : 8 бит
Тип развёртки : Прогрессивная
Метод сжатия : С потерями
Бит/(Пиксели*Кадры) : 0.187
Размер потока : 288 Мбайт (87%)
Библиотека кодирования : XviD 73

Аудио
Идентификатор : 1
Формат : AC-3
Формат/Информация : Audio Coding 3
Идентификатор кодека : 2000
Продолжительность : 29 м. 49 с.
Вид битрейта : Постоянный
Битрейт : 192 Кбит/сек
Каналы : 2 канала
Расположение каналов : Front: L R
Частота : 48,0 КГц
Частота кадров : 31,250 кадров/сек (1536 SPF)
Битовая глубина : 16 бит
Метод сжатия : С потерями
Размер потока : 41,0 Мбайт (12%)
Выравнивание : Разделение по промежуткам
Продолжительность промежутка : 40 мс. (1,00 видеокадр)
Время предзагрузки промежутка : 500 мс.
ServiceKind/Strin : Complete Main
Скриншоты
 

Вложения

  • 13,8 KB Просмотры: 1
    Личеров 0
    Сидеров 0
    Файлов 1
    Объем 331 MB

Привет!

Мы группа людей которые решили помочь другим в решении их проблем, а так же пользователям с поиском самых свежих и качественных инфопродуктов. За 4 с небольшим месяца мы создали этот форум на который заходят ежедневно тысячи человек и посещаемость постоянно растёт. Мы создали панель лицензирования для защиты PHP скриптов от воровства и SEO панель для мониторинга наших сайтов и выбора верной стратегии их развития. Мы надеемся что то что мы создали пригодится Вам и возможно Вы поможете нам развиваться и совершенствоваться вместе с Вами.

Статистика форума

Темы
410.968
Сообщения
469.425
Пользователи
88.508
Новый пользователь
bimbimbom

Приложения форума для iOS и Android


У ркн там нет власти ;)
Приватные разговоры
Помощь Пользователи
    Вы не присоединились ни к одной комнате.