За последнюю неделю опубликовано 27 новых материалов.
Инструкция новичку Путеводитель по форуму Прокси для Telegram Показать подсказки , это бомба!

Скачать Большой папа / Big Daddy (1999) BDRip 1080p от Freeisland бесплатно через торрент

  • Поучаствуй (в качестве покупателя) в любых пяти совместных покупках (кроме завершённых и "Моментальных") и получи группу "Новичок" навсегда -> ссылка на раздел
  • Получай до 480 рублей за каждого приглашенного пользователя!
    представляем Вам очередное расширение партнерской программы, подробности описаны тут -> ссылка
  • 90% материалов доступно к скачиванию после простой регистрации!
    Если же ты хочешь скачивать материалы без требования оставлять отзывы то получи группу "Новичок", 10 способов повышения описаны тут -> ссылка
  • К сожалению количество битых ссылок растет и мы уже не можем их оперативно восстанавливать поэтому просим помощи у каждого нашего пользователя.
    С сегодняшнего дня, за каждую восстановленную ссылку мы заплатим Вам.
    Подробнее тут -> ссылка
  • Перенесем твои заслуги с другого ресурса!
    Мы понимаем как сложно прокачивать аккаунты на форумах, вроде раскачал аккаунт, а тут появляется ресурс в 100 раз круче но тоже с системой прокачки и снова качать аккаунт...
    Предлагаем вам перенести Ваши заслуги на другом подобном ресурсе к нам.
    Подробности описаны тут -> ссылка
  • Вы можете получать по 2.5% с каждой покупки и продажи на маркете! Подробности в теме Партнёрская программа
Если Вы не хотите скачивать, Вы всегда можетепосмотретьонлайн, просто нажмите кнопку ниже :

Открыть плеер

Torrent_Bot

Торрент-Бот
Бот форума
4 Окт 2016
93
156
20
Большой папа
Big Daddy
«Зов природы. Никуда не денешься»



Год выпуска: 1999
Страна: США
Жанр: драма, комедия
Продолжительность: 01:33:04
Перевод: Профессиональный (дублированный)
Субтитры: Russian (UTF-8), English (UTF-8)

Режиссер: Деннис Дуган
Сценарий: Стив Фрэнкс, Тим Херлихи, Адам Сэндлер
Продюсер: Сидни Гэнис, Джек Джиррапуто, Джозеф М. Карачиоло, ...
Оператор: Тео ван де Санде
Композитор: Тедди Кастелуччи
Художник: Перри Энделин Блейк, Рик Батлер, Эллен Люттер, ...
Монтаж: Джефф Гоурсон

В ролях: Адам Сэндлер / Adam Sandler (Sonny Koufax, $ 8 000 000 ), Джои Лорен Эдамс / Joey Lauren Adams (Layla Maloney), Джон Стюарт / Jon Stewart (Kevin Gerrity), Коул Спроус / Cole Sprouse (Julian «Frankenstien» McGrath), Дилан Спроус / Dylan Sprouse (Julian «Frankenstien» McGrath), Джош Мостел / Josh Mostel (Arthur Brooks), Лесли Манн / Leslie Mann (Corinne Maloney), Аллен Коверт / Allen Covert (Phil D'Amato), Роб Шнайдер / Rob Schneider (Delivery Guy), Кристи Суонсон / Kristy Swanson (Vanessa)

Описание: Если бы дети могли выбирать себе родителей, все малыши попросили бы, чтобы тридцатилетний Санни был их папой. Ведь он разрешает делать абсолютно все: есть кетчупа вдоволь, плеваться, где хочешь, ходить по улице в ластах, не спать, не мыть руки и не убирать постель.Когда человек, который сам так и не сумел повзрослеть, вдобавок усыновляет маленького мальчика, рождается самая забавная семья, маленький цирк, где на арене выступает большой папа.


Бюджет: $34 200 000
Сборы в США: $163 479 795
Сборы в мире: + $71 322 100 = $234 801 895
Зрители: США 32.2 млн , Великобритания 1.09 млн , Испания 963.9 тыс.
Премьера (мир): 17 июня 1999, ...
Премьера (РФ): 29 апреля 2001, «Каскад»
Рейтинг MPAA: Детям до 13 лет просмотр не желателен




Качество: BDRip 1080р
Формат: MKV
Видео кодек: AVC
Аудио кодеk: AC3
Видео: 1920x1038 (1.850:1), 23.976 fps, AVC, 10.8 Mbps

Аудио #1: AC3, 384 Kbps, 48.0 KHz, 6 ch Дубляж, лицензия "Видеосервис"
Аудио #2: AC3, 384 Kbps, 48.0 KHz, 6 ch Многоголосый закадровый, лицензия "Видеосервис"
Аудио #3: AC3, 448 Kbps, 48.0 KHz, 2,0 ch English





МедиаИнфо
Лог:
- x264 [info]: frame I:1213 Avg QP:15.76 size:199149
- x264 [info]: frame P:26068 Avg QP:18.58 size: 93136
- x264 [info]: frame B:106615 Avg QP:20.73 size: 45304

General
Complete name : Big.Daddy.1999.BDRip.1080p.mkv
Format : Matroska
File size : 7.78 GiB
Duration : 1h 33mn
Overall bit rate : 11.9 Mbps
Encoded date : UTC 2013-09-27 01:38:31
Writing application : mkvmerge v6.3.0 ('You can't stop me!') built on Jun 28 2013 20:09:41
Writing library : libebml v1.3.0 + libmatroska v1.4.0

Video
ID : 1
Format : AVC
Format/Info : Advanced Video Codec
Format profile : High@L4.1
Format settings, CABAC : Yes
Format settings, ReFrames : 4 frames
Muxing mode : Container profile=Unknown@4.1
Codec ID : V_MPEG4/ISO/AVC
Duration : 1h 33mn
Bit rate : 10.8 Mbps
Width : 1 920 pixels
Height : 1 038 pixels
Display aspect ratio : 1.850
Frame rate : 23.976 fps
Color space : YUV
Chroma subsampling : 4:2:0
Bit depth : 8 bits
Scan type : Progressive
Bits/(Pixel*Frame) : 0.226
Stream size : 6.83 GiB (88%)
Writing library : x264 core 138 r2358 9e941d1
Encoding settings : cabac=1 / ref=4 / deblock=1:-1:-1 / analyse=0x3:0x133 / me=umh / subme=10 / psy=1 / psy_rd=1.00:0.00 / mixed_ref=1 / me_range=32 / chroma_me=1 / trellis=2 / 8x8dct=1 / cqm=0 / deadzone=21,11 / fast_pskip=0 / chroma_qp_offset=-2 / threads=6 / lookahead_threads=1 / sliced_threads=0 / nr=0 / decimate=1 / interlaced=0 / bluray_compat=0 / constrained_intra=0 / bframes=10 / b_pyramid=2 / b_adapt=2 / b_bias=0 / direct=3 / weightb=1 / open_gop=0 / weightp=2 / keyint=240 / keyint_min=24 / scenecut=40 / intra_refresh=0 / rc_lookahead=50 / rc=2pass / mbtree=0 / bitrate=10782 / ratetol=2.0 / qcomp=1.00 / qpmin=0 / qpmax=51 / qpstep=4 / cplxblur=20.0 / qblur=0.5 / vbv_maxrate=50000 / vbv_bufsize=62500 / nal_hrd=none / ip_ratio=1.40 / pb_ratio=1.30 / aq=1:1.00
Color primaries : BT.709-5, BT.1361, IEC 61966-2-4, SMPTE RP177
Transfer characteristics : BT.709-5, BT.1361
Matrix coefficients : BT.709-5, BT.1361, IEC 61966-2-4 709, SMPTE RP177

Audio #1
ID : 2
Format : AC-3
Format/Info : Audio Coding 3
Mode extension : CM (complete main)
Codec ID : A_AC3
Duration : 1h 33mn
Bit rate mode : Constant
Bit rate : 384 Kbps
Channel(s) : 6 channels
Channel positions : Front: L C R, Side: L R, LFE
Sampling rate : 48.0 KHz
Bit depth : 16 bits
Stream size : 256 MiB (3%)
Title : Дубляж - Видеосервис
Language : Russian

Audio #2
ID : 3
Format : AC-3
Format/Info : Audio Coding 3
Mode extension : CM (complete main)
Codec ID : A_AC3
Duration : 1h 33mn
Bit rate mode : Constant
Bit rate : 384 Kbps
Channel(s) : 6 channels
Channel positions : Front: L C R, Side: L R, LFE
Sampling rate : 48.0 KHz
Bit depth : 16 bits
Stream size : 256 MiB (3%)
Title : MVO - Видеосервис
Language : Russian

Audio #3
ID : 4
Format : AC-3
Format/Info : Audio Coding 3
Mode extension : CM (complete main)
Codec ID : A_AC3
Duration : 1h 33mn
Bit rate mode : Constant
Bit rate : 448 Kbps
Channel(s) : 2 channels
Channel positions : Front: L R
Sampling rate : 48.0 KHz
Bit depth : 16 bits
Stream size : 298 MiB (3%)
Language : English

Text #1
ID : 5
Format : UTF-8
Codec ID : S_TEXT/UTF8
Codec ID/Info : UTF-8 Plain Text
Language : Russian

Text #2
ID : 6
Format : UTF-8
Codec ID : S_TEXT/UTF8
Codec ID/Info : UTF-8 Plain Text
Language : English

Text #3
ID : 7
Format : UTF-8
Codec ID : S_TEXT/UTF8
Codec ID/Info : UTF-8 Plain Text
Title : US - SDH
Language : English

Menu
00:00:00.000 : en:00:00:00.000
00:04:06.246 : en:00:04:06.246
00:11:56.341 : en:00:11:56.341
00:18:39.201 : en:00:18:39.201
00:23:40.919 : en:00:23:40.919
00:30:05.095 : en:00:30:05.095
00:37:39.174 : en:00:37:39.174
00:42:12.905 : en:00:42:12.905
00:46:12.687 : en:00:46:12.687
00:51:48.689 : en:00:51:48.689
00:56:18.750 : en:00:56:18.750
01:02:59.442 : en:01:02:59.442
01:07:07.190 : en:01:07:07.190
01:09:45.932 : en:01:09:45.932
01:16:09.523 : en:01:16:09.523
01:23:23.332 : en:01:23:23.332

Скриншоты

Релиз группы:
 

Вложения

  • 20,6 KB Просмотры: 1
    Личеров 0
    Сидеров 0
    Файлов 1
    Объем 7,8 GB

Привет!

Мы группа людей которые решили помочь другим в решении их проблем, а так же пользователям с поиском самых свежих и качественных инфопродуктов. За 4 с небольшим месяца мы создали этот форум на который заходят ежедневно тысячи человек и посещаемость постоянно растёт. Мы создали панель лицензирования для защиты PHP скриптов от воровства и SEO панель для мониторинга наших сайтов и выбора верной стратегии их развития. Мы надеемся что то что мы создали пригодится Вам и возможно Вы поможете нам развиваться и совершенствоваться вместе с Вами.

Статистика форума

Темы
406.549
Сообщения
464.713
Пользователи
83.419
Новый пользователь
geznavi

Приложения форума для iOS и Android


У ркн там нет власти ;)
Приватные разговоры
Помощь Пользователи
    Вы не присоединились ни к одной комнате.