За последнюю неделю опубликовано 72 новых материалов.
Инструкция новичку Путеводитель по форуму Прокси для Telegram Показать подсказки , это бомба!

Скачать Большой Лебовски / The Big Lebowski (1998) UHD BDRip 720p | D, P, P2, A | Remastered бесплатно через торрент

  • Поучаствуй (в качестве покупателя) в любых пяти совместных покупках (кроме завершённых и "Моментальных") и получи группу "Новичок" навсегда -> ссылка на раздел
  • Получай до 480 рублей за каждого приглашенного пользователя!
    представляем Вам очередное расширение партнерской программы, подробности описаны тут -> ссылка
  • 90% материалов доступно к скачиванию после простой регистрации!
    Если же ты хочешь скачивать материалы без требования оставлять отзывы то получи группу "Новичок", 10 способов повышения описаны тут -> ссылка
  • К сожалению количество битых ссылок растет и мы уже не можем их оперативно восстанавливать поэтому просим помощи у каждого нашего пользователя.
    С сегодняшнего дня, за каждую восстановленную ссылку мы заплатим Вам.
    Подробнее тут -> ссылка
  • Перенесем твои заслуги с другого ресурса!
    Мы понимаем как сложно прокачивать аккаунты на форумах, вроде раскачал аккаунт, а тут появляется ресурс в 100 раз круче но тоже с системой прокачки и снова качать аккаунт...
    Предлагаем вам перенести Ваши заслуги на другом подобном ресурсе к нам.
    Подробности описаны тут -> ссылка
  • Вы можете получать по 2.5% с каждой покупки и продажи на маркете! Подробности в теме Партнёрская программа
Если Вы не хотите скачивать, Вы всегда можетепосмотретьонлайн, просто нажмите кнопку ниже :

Открыть плеер

Torrent_Bot

Торрент-Бот
Бот форума
4 Окт 2016
102
157
20


Информация о фильме
Название: Большой Лебовски
Оригинальное название: The Big Lebowski
Год выхода: 1998
Жанр: комедия, криминал
Режиссер: Джоэл Коэн
В ролях: Джефф Бриджес, Джон Гудмен, Джулианна Мур, Стив Бушеми, Дэвид Хаддлстон, Филип Сеймур Хоффман, Тара Рейд, Филип Мун, Марк Пеллегрино, Петер Стормаре, Фли, Торстен Фогс, Джимми Дэйл Гилмор, Джек Келер, Джон Туртурро и другие

О фильме: Лос-Анджелес, 1991 год, война в Персидском заливе. Главный герой по прозвищу «Чувак» считает себя совершенно счастливым человеком. Его жизнь составляют игра в боулинг и выпивка. Но внезапно его счастье нарушается, гангстеры по ошибке принимают его за миллионера-однофамильца, требуют деньги, о которых он ничего не подозревает, и, ко всему прочему, похищают жену миллионера, будучи уверенными, что «муж» выплатит за нее любую сумму.



Страна: США, Великобритания
Студия: PolyGram Filmed Entertainment, Working Title Films
Продолжительность: 01:57:14
Перевод: Дублированный, профессиональный многоголосый, профессиональный двухголосый, авторский

Файл
Формат: MKV
Качество: UHD BDRip 720p
Видео: H.264/AVC, 1280x692 (1.85:1), 23.976 fps, 3 974 kbps
Аудио #1: AC3, 48 kHz, 6 ch, 448 kbps - Русский, DVO | Кубик в Кубе
Аудио #2: AC3, 48 kHz, 6 ch, 384 kbps - Русский, Dub
Аудио #3: AC3, 48 kHz, 6 ch, 448 kbps - Русский, MVO | Киномания
Аудио #3: AC3, 48 kHz, 2 ch, 192 kbps - Русский, MVO | d2Lab
Аудио #4: AC3, 48 kHz, 6 ch, 448 kbps - Русский, AVO | М.Яроцкий
Аудио #5: AC3, 48 kHz, 6 ch, 448 kbps - Русский, AVO | Ю.Сербин
Аудио #6: AC3, 48 kHz, 6 ch, 448 kbps - Русский, AVO | Д.Пучков (Гоблин)
Аудио #7: AC3, 48 kHz, 6 ch, 448 kbps - Русский, AVO | А.Гаврилов
Аудио #8: AC3, 48 kHz, 6 ch, 448 kbps - Русский, AVO | Л.Володарский
Аудио #9: AC3, 48 kHz, 6 ch, 448 kbps - Русский, AVO | Ю.Живов
Аудио #10: AC3, 48 kHz, 2 ch, 256 kbps - Русский, AVO | В.Горчаков
Аудио #11: AC3, 48 kHz, 6 ch, 448 kbps - Английский, Original
Субтитры: русские, английские

MediaInfo:
General
Unique ID : 185528073217772863777248195574685275187 (0x8B93683C850C5360808559165FD49433)
Complete name : C:Большой Лебовски.1998 (Д.Бриджес, Д.Гудман).Remastered.mkv
Format : Matroska
Format version : Version 2
File size : 7.37 GiB
Duration : 1 h 57 min
Overall bit rate : 9 003 kb/s
Encoded date : UTC 2020-05-16 12:56:00
Writing application : mkvmerge v5.3.0 ('I could have danced') built on Feb 9 2012 10:38:07
Writing library : libebml v1.2.3 + libmatroska v1.3.0
Cover : Yes
Attachments : cover.jpg

Video
ID : 1
Format : AVC
Format/Info : Advanced Video Codec
Format profile : High@L4.1
Format settings, CABAC : Yes
Format settings, ReFrames : 9 frames
Codec ID : V_MPEG4/ISO/AVC
Duration : 1 h 57 min
Bit rate : 3 960 kb/s
Width : 1 280 pixels
Height : 692 pixels
Display aspect ratio : 1.85:1
Frame rate mode : Constant
Frame rate : 23.976 (24000/1001) FPS
Color space : YUV
Chroma subsampling : 4:2:0
Bit depth : 8 bits
Scan type : Progressive
Bits/(Pixel*Frame) : 0.186
Stream size : 3.24 GiB (44%)
Writing library : x264 core 157 r2935 545de2f
Encoding settings : cabac=1 / ref=9 / deblock=1:-3:-3 / analyse=0x3:0x133 / me=umh / subme=10 / psy=1 / psy_rd=1.00:0.15 / mixed_ref=1 / me_range=32 / chroma_me=1 / trellis=2 / 8x8dct=1 / cqm=0 / deadzone=21,11 / fast_pskip=0 / chroma_qp_offset=-3 / threads=22 / lookahead_threads=3 / sliced_threads=0 / nr=0 / decimate=1 / interlaced=0 / bluray_compat=0 / constrained_intra=0 / bframes=8 / b_pyramid=2 / b_adapt=2 / b_bias=0 / direct=3 / weightb=1 / open_gop=0 / weightp=2 / keyint=240 / keyint_min=24 / scenecut=40 / intra_refresh=0 / rc_lookahead=60 / rc=crf / mbtree=1 / crf=17.0 / qcomp=0.60 / qpmin=0 / qpmax=69 / qpstep=4 / ip_ratio=1.40 / aq=1:0.80
Language : English
Default : Yes
Forced : No
Color range : Limited
Matrix coefficients : BT.709

Audio #1
ID : 2
Format : AC-3
Format/Info : Audio Coding 3
Mode extension : CM (complete main)
Format settings, Endianness : Big
Codec ID : A_AC3
Duration : 1 h 57 min
Bit rate mode : Constant
Bit rate : 448 kb/s
Channel(s) : 6 channels
Channel positions : Front: L C R, Side: L R, LFE
Sampling rate : 48.0 kHz
Frame rate : 31.250 FPS (1536 spf)
Bit depth : 16 bits
Compression mode : Lossy
Stream size : 376 MiB (5%)
Title : DVO | Кубик в Кубе
Language : Russian
Default : Yes
Forced : Yes

Audio #2
ID : 3
Format : AC-3
Format/Info : Audio Coding 3
Mode extension : CM (complete main)
Format settings, Endianness : Big
Codec ID : A_AC3
Duration : 1 h 57 min
Bit rate mode : Constant
Bit rate : 384 kb/s
Channel(s) : 6 channels
Channel positions : Front: L C R, Side: L R, LFE
Sampling rate : 48.0 kHz
Frame rate : 31.250 FPS (1536 spf)
Bit depth : 16 bits
Compression mode : Lossy
Stream size : 322 MiB (4%)
Title : Dub
Language : Russian
Default : No
Forced : No

Audio #3
ID : 4
Format : AC-3
Format/Info : Audio Coding 3
Mode extension : CM (complete main)
Format settings, Endianness : Big
Codec ID : A_AC3
Duration : 1 h 57 min
Bit rate mode : Constant
Bit rate : 448 kb/s
Channel(s) : 6 channels
Channel positions : Front: L C R, Side: L R, LFE
Sampling rate : 48.0 kHz
Frame rate : 31.250 FPS (1536 spf)
Bit depth : 16 bits
Compression mode : Lossy
Stream size : 376 MiB (5%)
Title : MVO | Киномания
Language : Russian
Default : No
Forced : No

Audio #4
ID : 5
Format : AC-3
Format/Info : Audio Coding 3
Mode extension : CM (complete main)
Format settings, Endianness : Big
Codec ID : A_AC3
Duration : 1 h 57 min
Bit rate mode : Constant
Bit rate : 192 kb/s
Channel(s) : 2 channels
Channel positions : Front: L R
Sampling rate : 48.0 kHz
Frame rate : 31.250 FPS (1536 spf)
Bit depth : 16 bits
Compression mode : Lossy
Stream size : 161 MiB (2%)
Title : MVO | d2Lab
Language : Russian
Default : No
Forced : No

Audio #5
ID : 6
Format : AC-3
Format/Info : Audio Coding 3
Mode extension : CM (complete main)
Format settings, Endianness : Big
Codec ID : A_AC3
Duration : 1 h 57 min
Bit rate mode : Constant
Bit rate : 448 kb/s
Channel(s) : 6 channels
Channel positions : Front: L C R, Side: L R, LFE
Sampling rate : 48.0 kHz
Frame rate : 31.250 FPS (1536 spf)
Bit depth : 16 bits
Compression mode : Lossy
Stream size : 376 MiB (5%)
Title : AVO | М.Яроцкий
Language : Russian
Default : No
Forced : No

Audio #6
ID : 7
Format : AC-3
Format/Info : Audio Coding 3
Mode extension : CM (complete main)
Format settings, Endianness : Big
Codec ID : A_AC3
Duration : 1 h 57 min
Bit rate mode : Constant
Bit rate : 448 kb/s
Channel(s) : 6 channels
Channel positions : Front: L C R, Side: L R, LFE
Sampling rate : 48.0 kHz
Frame rate : 31.250 FPS (1536 spf)
Bit depth : 16 bits
Compression mode : Lossy
Stream size : 376 MiB (5%)
Title : AVO | Ю.Сербин
Language : Russian
Default : No
Forced : No

Audio #7
ID : 8
Format : AC-3
Format/Info : Audio Coding 3
Mode extension : CM (complete main)
Format settings, Endianness : Big
Codec ID : A_AC3
Duration : 1 h 57 min
Bit rate mode : Constant
Bit rate : 448 kb/s
Channel(s) : 6 channels
Channel positions : Front: L C R, Side: L R, LFE
Sampling rate : 48.0 kHz
Frame rate : 31.250 FPS (1536 spf)
Bit depth : 16 bits
Compression mode : Lossy
Stream size : 376 MiB (5%)
Title : AVO | Д.Пучков (Гоблин)
Language : Russian
Default : No
Forced : No

Audio #8
ID : 9
Format : AC-3
Format/Info : Audio Coding 3
Mode extension : CM (complete main)
Format settings, Endianness : Big
Codec ID : A_AC3
Duration : 1 h 57 min
Bit rate mode : Constant
Bit rate : 448 kb/s
Channel(s) : 6 channels
Channel positions : Front: L C R, Side: L R, LFE
Sampling rate : 48.0 kHz
Frame rate : 31.250 FPS (1536 spf)
Bit depth : 16 bits
Compression mode : Lossy
Stream size : 376 MiB (5%)
Title : AVO | А.Гаврилов
Language : Russian
Default : No
Forced : No

Audio #9
ID : 10
Format : AC-3
Format/Info : Audio Coding 3
Mode extension : CM (complete main)
Format settings, Endianness : Big
Codec ID : A_AC3
Duration : 1 h 57 min
Bit rate mode : Constant
Bit rate : 448 kb/s
Channel(s) : 6 channels
Channel positions : Front: L C R, Side: L R, LFE
Sampling rate : 48.0 kHz
Frame rate : 31.250 FPS (1536 spf)
Bit depth : 16 bits
Compression mode : Lossy
Stream size : 376 MiB (5%)
Title : AVO | Л.Володарский
Language : Russian
Default : No
Forced : No

Audio #10
ID : 11
Format : AC-3
Format/Info : Audio Coding 3
Mode extension : CM (complete main)
Format settings, Endianness : Big
Codec ID : A_AC3
Duration : 1 h 57 min
Bit rate mode : Constant
Bit rate : 448 kb/s
Channel(s) : 6 channels
Channel positions : Front: L C R, Side: L R, LFE
Sampling rate : 48.0 kHz
Frame rate : 31.250 FPS (1536 spf)
Bit depth : 16 bits
Compression mode : Lossy
Stream size : 376 MiB (5%)
Title : AVO | Ю.Живов
Language : Russian
Default : No
Forced : No

Audio #11
ID : 12
Format : AC-3
Format/Info : Audio Coding 3
Mode extension : CM (complete main)
Format settings, Endianness : Big
Codec ID : A_AC3
Duration : 1 h 57 min
Bit rate mode : Constant
Bit rate : 256 kb/s
Channel(s) : 2 channels
Channel positions : Front: L R
Sampling rate : 48.0 kHz
Frame rate : 31.250 FPS (1536 spf)
Bit depth : 16 bits
Compression mode : Lossy
Stream size : 215 MiB (3%)
Title : AVO | В.Горчаков
Language : Russian
Default : No
Forced : No

Audio #12
ID : 13
Format : AC-3
Format/Info : Audio Coding 3
Mode extension : CM (complete main)
Format settings, Endianness : Big
Codec ID : A_AC3
Duration : 1 h 57 min
Bit rate mode : Constant
Bit rate : 448 kb/s
Channel(s) : 6 channels
Channel positions : Front: L C R, Side: L R, LFE
Sampling rate : 48.0 kHz
Frame rate : 31.250 FPS (1536 spf)
Bit depth : 16 bits
Compression mode : Lossy
Stream size : 376 MiB (5%)
Title : Original
Language : English
Default : No
Forced : No

Text #1
ID : 14
Format : UTF-8
Codec ID : S_TEXT/UTF8
Codec ID/Info : UTF-8 Plain Text
Title : Goblin
Language : Russian
Default : No
Forced : No

Text #2
ID : 15
Format : UTF-8
Codec ID : S_TEXT/UTF8
Codec ID/Info : UTF-8 Plain Text
Title : AlexWaits
Language : Russian
Default : No
Forced : No

Text #3
ID : 16
Format : UTF-8
Codec ID : S_TEXT/UTF8
Codec ID/Info : UTF-8 Plain Text
Title : D2Lab
Language : Russian
Default : No
Forced : No

Text #4
ID : 17
Format : UTF-8
Codec ID : S_TEXT/UTF8
Codec ID/Info : UTF-8 Plain Text
Title : full
Language : Russian
Default : No
Forced : No

Text #5
ID : 18
Format : UTF-8
Codec ID : S_TEXT/UTF8
Codec ID/Info : UTF-8 Plain Text
Title : Children
Language : Russian
Default : No
Forced : No

Text #6
ID : 19
Format : UTF-8
Codec ID : S_TEXT/UTF8
Codec ID/Info : UTF-8 Plain Text
Title : full
Language : English
Default : No
Forced : No

Menu
00:00:00.000 : en:00:00:00.000
00:03:45.392 : en:00:03:45.392
00:05:37.212 : en:00:05:37.212
00:07:39.209 : en:00:07:39.209
00:10:02.268 : en:00:10:02.268
00:16:27.737 : en:00:16:27.737
00:20:01.742 : en:00:20:01.742
00:25:03.627 : en:00:25:03.627
00:29:27.933 : en:00:29:27.933
00:37:18.945 : en:00:37:18.945
00:42:38.598 : en:00:42:38.598
00:48:12.306 : en:00:48:12.306
00:54:34.521 : en:00:54:34.521
01:01:40.322 : en:01:01:40.322
01:06:59.182 : en:01:06:59.182
01:13:44.670 : en:01:13:44.670
01:20:29.366 : en:01:20:29.366
01:26:05.035 : en:01:26:05.035
01:39:32.300 : en:01:39:32.300
01:44:28.262 : en:01:44:28.262
01:49:19.928 : en:01:49:19.928
01:52:37.751 : en:01:52:37.751
Скриншоты


 

Вложения

  • 19,4 KB Просмотры: 0
    Личеров 0
    Сидеров 0
    Файлов 1
    Объем 7,4 GB

Привет!

Мы группа людей которые решили помочь другим в решении их проблем, а так же пользователям с поиском самых свежих и качественных инфопродуктов. За 4 с небольшим месяца мы создали этот форум на который заходят ежедневно тысячи человек и посещаемость постоянно растёт. Мы создали панель лицензирования для защиты PHP скриптов от воровства и SEO панель для мониторинга наших сайтов и выбора верной стратегии их развития. Мы надеемся что то что мы создали пригодится Вам и возможно Вы поможете нам развиваться и совершенствоваться вместе с Вами.

Статистика форума

Темы
405.450
Сообщения
462.438
Пользователи
80.495
Новый пользователь
РУС111273

Приложения форума для iOS и Android


У ркн там нет власти ;)
Приватные разговоры
Помощь Пользователи
    Вы не присоединились ни к одной комнате.