За последнюю неделю опубликовано 34 новых материалов.
Инструкция новичку Путеводитель по форуму Прокси для Telegram Показать подсказки , это бомба!

Скачать Большой (2016) DVDRip | Лицензия бесплатно через торрент

  • Поучаствуй (в качестве покупателя) в любых пяти совместных покупках (кроме завершённых и "Моментальных") и получи группу "Новичок" навсегда -> ссылка на раздел
  • Получай до 480 рублей за каждого приглашенного пользователя!
    представляем Вам очередное расширение партнерской программы, подробности описаны тут -> ссылка
  • 90% материалов доступно к скачиванию после простой регистрации!
    Если же ты хочешь скачивать материалы без требования оставлять отзывы то получи группу "Новичок", 10 способов повышения описаны тут -> ссылка
  • К сожалению количество битых ссылок растет и мы уже не можем их оперативно восстанавливать поэтому просим помощи у каждого нашего пользователя.
    С сегодняшнего дня, за каждую восстановленную ссылку мы заплатим Вам.
    Подробнее тут -> ссылка
  • Перенесем твои заслуги с другого ресурса!
    Мы понимаем как сложно прокачивать аккаунты на форумах, вроде раскачал аккаунт, а тут появляется ресурс в 100 раз круче но тоже с системой прокачки и снова качать аккаунт...
    Предлагаем вам перенести Ваши заслуги на другом подобном ресурсе к нам.
    Подробности описаны тут -> ссылка
  • Вы можете получать по 2.5% с каждой покупки и продажи на маркете! Подробности в теме Партнёрская программа
Если Вы не хотите скачивать, Вы всегда можетепосмотретьонлайн, просто нажмите кнопку ниже :

Открыть плеер

Torrent_Bot

Торрент-Бот
Бот форума
4 Окт 2016
93
160
20
Информация о фильме
Название: Большой
Год выхода: 2016
Жанр: Драма
Режиссер: Валерий Тодоровский
В ролях: Алиса Фрейндлих, Валентина Теличкина, Александр Домогаров, Николя Ле Риш, Маргарита Симонова, Екатерина Самуйлина, Анна Исаева, Анастасия Плотникова, Анастасия Прокофьева, Анна Тарасенко

О фильме:
Юная и необычайно талантливая танцовщица Юля Ольшанская из маленького шахтерского городка вытягивает «счастливый билет»: её замечает бывший артист балета Потоцкий и прочит будущее великой балерины, достойной главной сцены страны. Однако для того, чтобы стать бриллиантом, любому, даже самому выдающемуся алмазу, требуется огранка, и путь на легендарные подмостки Большого театра для Юли лежит через стены балетной школы, где опеку над непокорной провинциалкой берет еще более своенравная преподавательница Галина Михайловна Белецкая. Превращение в приму потребует невероятного самоотречения, и Юля на собственном опыте должна будет убедиться, что большой балет — это не только белизна пачек, золото лож и скольжение шелковых лент. Но никакие препятствия не остановят того, у кого есть Большая Мечта.



Страна: Россия
Студия: Продюсерская компания Валерия Тодоровского
Продолжительность: 02:06:15
Перевод: Не требуется | Лицензия R5

Файл
Качество: DVDRip
Кодек: XviD
Видео: 720x304 (2,35:1), 25 fps, XviD ~ 2016 kbps avg, 0.368 bit/pixel
Аудио: АС3, 48,0 kHz, 6 ch, ~448.00 kbps avg | русский |
Субтитры: Отсутствуют

Инфо-файл
Общее
Полное имя : Bolshoy.2016.O.DVDRip.2.18Gb.avi
Формат : AVI
Формат/Информация : Audio Video Interleave
Размер файла : 2,18 Гбайт
Продолжительность : 2 ч. 6 м.
Общий поток : 2476 Кбит/сек
Программа кодирования : VirtualDubMod 1.5.10.3 (build 2550/release)
Библиотека кодирования : VirtualDubMod build 2550/release

Видео
Идентификатор : 0
Формат : MPEG-4 Visual
Профиль формата : Advanced [email protected]
Параметр BVOP формата : 2
Параметр QPel формата : Нет
Параметр GMC формата : Без точки перехода
Параметр матрицы формата : Выборочная
Идентификатор кодека : XVID
Идентификатор кодека/Подсказка : XviD
Продолжительность : 2 ч. 6 м.
Битрейт : 2016 Кбит/сек
Ширина : 720 пикселей
Высота : 304 пикселя
Соотношение сторон : 2,35:1
Частота кадров : 25,000 кадров/сек
Цветовое пространство : YUV
Субдискретизация насыщенности : 4:2:0
Битовая глубина : 8 бит
Тип развёртки : Прогрессивная
Метод сжатия : С потерями
Бит/(Пиксели*Кадры) : 0.368
Размер потока : 1,78 Гбайт (81%)
Библиотека кодирования : XviD 73

Аудио
Идентификатор : 1
Формат : AC-3
Формат/Информация : Audio Coding 3
Параметр Endianness формата : Big
Идентификатор кодека : 2000
Продолжительность : 2 ч. 6 м.
Вид битрейта : Постоянный
Битрейт : 448 Кбит/сек
Каналы : 6 каналов
Расположение каналов : Front: L C R, Side: L R, LFE
Частота : 48,0 КГц
Частота кадров : 31,250 кадров/сек (1536 spf)
Битовая глубина : 16 бит
Метод сжатия : С потерями
Размер потока : 405 Мбайт (18%)
Выравнивание : Разделение по промежуткам
Продолжительность промежутка : 40 мс. (1,00 видеокадр)
Время предзагрузки промежутка : 500 мс.
Скриншоты
 

Вложения

  • 11,9 KB Просмотры: 1
    Личеров 0
    Сидеров 0
    Файлов 1
    Объем 2,2 GB

Привет!

Мы группа людей которые решили помочь другим в решении их проблем, а так же пользователям с поиском самых свежих и качественных инфопродуктов. За 4 с небольшим месяца мы создали этот форум на который заходят ежедневно тысячи человек и посещаемость постоянно растёт. Мы создали панель лицензирования для защиты PHP скриптов от воровства и SEO панель для мониторинга наших сайтов и выбора верной стратегии их развития. Мы надеемся что то что мы создали пригодится Вам и возможно Вы поможете нам развиваться и совершенствоваться вместе с Вами.

Статистика форума

Темы
406.599
Сообщения
464.995
Пользователи
84.341
Новый пользователь
Лана_1209

Приложения форума для iOS и Android


У ркн там нет власти ;)
Приватные разговоры
Помощь Пользователи
    Вы не присоединились ни к одной комнате.