За последнюю неделю опубликовано 34 новых материалов.
Инструкция новичку Путеводитель по форуму Прокси для Telegram Показать подсказки , это бомба!

Скачать Большая игра / Molly's Game (2017) HDRip | КПК | D бесплатно через торрент

  • Поучаствуй (в качестве покупателя) в любых пяти совместных покупках (кроме завершённых и "Моментальных") и получи группу "Новичок" навсегда -> ссылка на раздел
  • Получай до 480 рублей за каждого приглашенного пользователя!
    представляем Вам очередное расширение партнерской программы, подробности описаны тут -> ссылка
  • 90% материалов доступно к скачиванию после простой регистрации!
    Если же ты хочешь скачивать материалы без требования оставлять отзывы то получи группу "Новичок", 10 способов повышения описаны тут -> ссылка
  • К сожалению количество битых ссылок растет и мы уже не можем их оперативно восстанавливать поэтому просим помощи у каждого нашего пользователя.
    С сегодняшнего дня, за каждую восстановленную ссылку мы заплатим Вам.
    Подробнее тут -> ссылка
  • Перенесем твои заслуги с другого ресурса!
    Мы понимаем как сложно прокачивать аккаунты на форумах, вроде раскачал аккаунт, а тут появляется ресурс в 100 раз круче но тоже с системой прокачки и снова качать аккаунт...
    Предлагаем вам перенести Ваши заслуги на другом подобном ресурсе к нам.
    Подробности описаны тут -> ссылка
  • Вы можете получать по 2.5% с каждой покупки и продажи на маркете! Подробности в теме Партнёрская программа
Если Вы не хотите скачивать, Вы всегда можетепосмотретьонлайн, просто нажмите кнопку ниже :

Открыть плеер

Torrent_Bot

Торрент-Бот
Бот форума
4 Окт 2016
93
160
20



Информация о фильме
Название: Большая игра
Оригинальное название: Molly's Game
Год выхода: 2017
Жанр: Драма, биография
Режиссер: Аарон Соркин
В ролях: Джессика Честейн, Идрис Эльба, Кевин Костнер, Майкл Сера, Джереми Стронг, Крис О`Дауд, Дж.С. МакКензи, Брайан Д`Арси Джеймс, Билл Кэмп, Грэм Грин

О фильме:
Молли Блум называли Принцессой покера. Она построила самое дорогое подпольное казино в Голливуде. Каждую минуту здесь шли ва-банк кинозвезды, шейхи, миллиардеры. Большие деньги пахнут кровью. Как выжить, когда за тобой охотится мафия и ФБР?



Рейтинг MPAA: R - лицам до 17 лет обязательно присутствие взрослого

Страна: США, Китай
Студия: STX Entertainment, Huayi Brothers Pictures, The Mark Gordon Company
Продолжительность: 02:21:01
Перевод: Дублированный | Лицензия

Файл
Формат: MP4
Качество: HDRip (исх. BDRip 1080p от HELLYWOOD) *
Видео: AVC, 640x268 (2.39:1) at 24.000 fps, 432 kbps
Аудио: AAC LC SBR, 48.0 KHz, 2 ch, ~64 kbps
Субтитры: нет

* за исходник спасибо potroks

MediaInfo
General
Complete name : Bolshaya.Igra.2017.HDRip.mp4
Format : MPEG-4
Format profile : Base Media
Codec ID : isom (isom)
File size : 500 MiB
Duration : 2 h 20 min
Overall bit rate mode : Variable
Overall bit rate : 498 kb/s
Encoded date : UTC 2020-07-12 22:24:44
Tagged date : UTC 2020-07-12 22:24:44
Writing application : Yamb 2.1.0.0 [http://yamb.unite-video.com]

Video
ID : 1
Format : AVC
Format/Info : Advanced Video Codec
Format profile : [email protected]
Format settings : CABAC / 14 Ref Frames
Format settings, CABAC : Yes
Format settings, RefFrames : 14 frames
Codec ID : avc1
Codec ID/Info : Advanced Video Coding
Duration : 2 h 20 min
Bit rate : 432 kb/s
Maximum bit rate : 1 750 kb/s
Width : 640 pixels
Height : 268 pixels
Display aspect ratio : 2.40:1
Frame rate mode : Constant
Frame rate : 24.000 FPS
Color space : YUV
Chroma subsampling : 4:2:0
Bit depth : 8 bits
Scan type : Progressive
Bits/(Pixel*Frame) : 0.105
Stream size : 433 MiB (87%)
Title : Molly`s Game
Writing library : x264 core 152 r2851 ba24899
Encoding settings : cabac=1 / ref=14 / deblock=1:-3:-2 / analyse=0x3:0x113 / me=umh / subme=10 / psy=1 / psy_rd=1.00:0.02 / mixed_ref=1 / me_range=32 / chroma_me=1 / trellis=2 / 8x8dct=1 / cqm=0 / deadzone=21,11 / fast_pskip=0 / chroma_qp_offset=-3 / threads=6 / lookahead_threads=1 / sliced_threads=0 / nr=0 / decimate=0 / interlaced=0 / bluray_compat=0 / constrained_intra=0 / bframes=14 / b_pyramid=2 / b_adapt=2 / b_bias=0 / direct=3 / weightb=1 / open_gop=0 / weightp=2 / keyint=250 / keyint_min=24 / scenecut=40 / intra_refresh=0 / rc=2pass / mbtree=0 / bitrate=432 / ratetol=1.0 / qcomp=0.66 / qpmin=0 / qpmax=69 / qpstep=4 / cplxblur=20.0 / qblur=0.5 / ip_ratio=1.30 / pb_ratio=1.30 / aq=2:0.90
Language : English
Encoded date : UTC 2020-07-13 12:38:39
Tagged date : UTC 2020-07-12 22:26:08
Codec configuration box : avcC

Audio
ID : 2
Format : AAC LC SBR
Format/Info : Advanced Audio Codec Low Complexity with Spectral Band Replication
Commercial name : HE-AAC
Format settings : Explicit
Codec ID : mp4a-40-2
Duration : 2 h 20 min
Bit rate mode : Variable
Bit rate : 63.9 kb/s
Maximum bit rate : 149 kb/s
Channel(s) : 2 channels
Channel layout : L R
Sampling rate : 48.0 kHz
Frame rate : 23.438 FPS (2048 SPF)
Compression mode : Lossy
Stream size : 64.2 MiB (13%)
Title : DUB | License
Language : Russian
Encoded date : UTC 2020-07-12 22:26:01
Tagged date : UTC 2020-07-12 22:26:08
Скриншоты
 

Вложения

  • 20,5 KB Просмотры: 0
    Личеров 0
    Сидеров 0
    Файлов 1
    Объем 499,9 MB

Привет!

Мы группа людей которые решили помочь другим в решении их проблем, а так же пользователям с поиском самых свежих и качественных инфопродуктов. За 4 с небольшим месяца мы создали этот форум на который заходят ежедневно тысячи человек и посещаемость постоянно растёт. Мы создали панель лицензирования для защиты PHP скриптов от воровства и SEO панель для мониторинга наших сайтов и выбора верной стратегии их развития. Мы надеемся что то что мы создали пригодится Вам и возможно Вы поможете нам развиваться и совершенствоваться вместе с Вами.

Статистика форума

Темы
406.601
Сообщения
464.985
Пользователи
84.248
Новый пользователь
kkkkkkkrrrimmmh

Приложения форума для iOS и Android


У ркн там нет власти ;)
Приватные разговоры
Помощь Пользователи
    Вы не присоединились ни к одной комнате.