За последнюю неделю опубликовано 49 новых материалов.
Инструкция новичку Путеводитель по форуму Прокси для Telegram Показать подсказки , это бомба!

Скачать Больница / The Hospital (1971) BDRip 720p от ExKinoRay | P2 бесплатно через торрент

  • Поучаствуй (в качестве покупателя) в любых пяти совместных покупках (кроме завершённых и "Моментальных") и получи группу "Новичок" навсегда -> ссылка на раздел
  • Получай до 480 рублей за каждого приглашенного пользователя!
    представляем Вам очередное расширение партнерской программы, подробности описаны тут -> ссылка
  • 90% материалов доступно к скачиванию после простой регистрации!
    Если же ты хочешь скачивать материалы без требования оставлять отзывы то получи группу "Новичок", 10 способов повышения описаны тут -> ссылка
  • К сожалению количество битых ссылок растет и мы уже не можем их оперативно восстанавливать поэтому просим помощи у каждого нашего пользователя.
    С сегодняшнего дня, за каждую восстановленную ссылку мы заплатим Вам.
    Подробнее тут -> ссылка
  • Перенесем твои заслуги с другого ресурса!
    Мы понимаем как сложно прокачивать аккаунты на форумах, вроде раскачал аккаунт, а тут появляется ресурс в 100 раз круче но тоже с системой прокачки и снова качать аккаунт...
    Предлагаем вам перенести Ваши заслуги на другом подобном ресурсе к нам.
    Подробности описаны тут -> ссылка
  • Вы можете получать по 2.5% с каждой покупки и продажи на маркете! Подробности в теме Партнёрская программа
Если Вы не хотите скачивать, Вы всегда можетепосмотретьонлайн, просто нажмите кнопку ниже :

Открыть плеер

Torrent_Bot

Торрент-Бот
Бот форума
4 Окт 2016
93
160
20



Информация о фильме
Название: Больница
Оригинальное название: The Hospital
Год выхода: 1971
Жанр: Драма, комедия, медицина
Режиссер: Артур Хиллер
В ролях: Джордж К. Скотт, Дайана Ригг, Барнард Хьюз, Ричард А. Дайсарт, Стивен Эллиот, Эндрю Дункан, Дональд Херрон, Нэнси Марчанд, Джордан Чарни, Робертс Блоссом

О фильме:
Фильм повествует о истории жизни доктора Бока, главного врача в большой учебной больнице Манхэттана. Бок испытывает кризис середины жизни, кроме того его оставила жена, его лишили детей — он бессилен и уже думает о самоубийстве. Он думает о самоубийстве в стенах больницы и наталкивается на череду якобы несчастных случаев. Некоторые больные умирают не от осложнений, а от ошибочного лечения, назначенного врачами. Люди соблюдают не тот режим, принимают ненужные лекарства, направляются в ненужные отделения хирургии — и в итоге оказываются в списке умерших от естественных причин. Доктор Бок уже не думает о самоубийстве, а пытается разгадать загадку: как сделать так, чтобы ряд причудливых смертельных случаев среди докторов и штата больницы выглядел случайным.




Страна: США
Студия: Simcha Productions
Продолжительность: 01:43:04
Перевод: Профессиональный двухголосый

Файл
Качество: BDRip 720p
Видео: MPEG-4 AVC, 9500 Кбит/с, 1280x692, 23.976 Кадр/с
Звук:
Aудио#1: Russian: 48 kHz, AC3, 2 (L,R) ch, ~192.00 kbps avg |Профессиональный двухголосый, НТВ+|
Aудио#2: English: 48 kHz, FLAC, 2 (L,R) ch, ~1048.00 kbps avg
Субтитры: Russian (Full-length), English (Full-length, SDH)

Log/MediaInfo
x264 [info]: frame I:686 Avg QP:15.74 size:104936
x264 [info]: frame P:26751 Avg QP:17.40 size: 67046
x264 [info]: frame B:120840 Avg QP:18.58 size: 45326

Формат : Matroska
Версия формата : Version 4
Размер файла : 7,73 Гбайт
Продолжительность : 1 ч. 43 м.
Режим общего битрейта : Переменный
Общий поток : 10,7 Мбит/сек
Название фильма : The.Hospital.1971.x264.BDRip.720p.Rus.Eng.ExKinoRay
Дата кодирования : UTC 2020-08-30 14:25:40
Программа кодирования : mkvmerge v49.0.0 ('Sick Of Losing Soulmates') 64-bit
Библиотека кодирования : libebml v1.4.0 + libmatroska v1.6.1

Видео
Идентификатор : 1
Формат : AVC
Формат/Информация : Advanced Video Codec
Профиль формата : [email protected]
Настройки формата : CABAC / 9 Ref Frames
Параметр CABAC формата : Да
Параметр RefFrames формата : 9 кадров
Идентификатор кодека : V_MPEG4/ISO/AVC
Продолжительность : 1 ч. 43 м.
Битрейт : 9 500 Кбит/сек
Ширина : 1 280 пикселей
Высота : 692 пикселя
Соотношение сторон : 1,85:1
Режим частоты кадров : Постоянный
Частота кадров : 23,976 кадра/сек
Цветовое пространство : YUV
Субдискретизация насыщенности : 4:2:0
Битовая глубина : 8 бит
Тип развёртки : Прогрессивная
Бит/(Пиксели*Кадры) : 0.447
Размер потока : 6,84 Гбайт (88%)
Заголовок : The.Hospital.1971.x264.BDRip.720p.Rus.Eng.ExKinoRay
Библиотека кодирования : x264 core 160 r3000 33f9e14
Настройки программы : cabac=1 / ref=9 / deblock=1:-3:-3 / analyse=0x3:0x113 / me=umh / subme=11 / psy=1 / psy_rd=1.00:0.15 / mixed_ref=1 / me_range=32 / chroma_me=1 / trellis=2 / 8x8dct=1 / cqm=0 / deadzone=21,11 / fast_pskip=0 / chroma_qp_offset=-3 / threads=18 / lookahead_threads=4 / sliced_threads=0 / nr=0 / decimate=0 / interlaced=0 / bluray_compat=0 / constrained_intra=0 / bframes=12 / b_pyramid=2 / b_adapt=2 / b_bias=0 / direct=3 / weightb=1 / open_gop=0 / weightp=2 / keyint=240 / keyint_min=23 / scenecut=40 / intra_refresh=0 / rc_lookahead=80 / rc=2pass / mbtree=0 / bitrate=9500 / ratetol=1.0 / qcomp=0.60 / qpmin=0 / qpmax=69 / qpstep=4 / cplxblur=20.0 / qblur=0.5 / vbv_maxrate=62500 / vbv_bufsize=78125 / nal_hrd=none / filler=0 / ip_ratio=1.30 / pb_ratio=1.20 / aq=3:0.80 / zones=52573,53540,b=1.5/57701,57967,b=1.5/57968,58189,b=1.4/58190,58347,b=1.5/59262,59741,b=1.4/59823,59860,b=0.2/120566,121726,b=1.5
Язык : English
Default : Да
Forced : Нет

Аудио #1
Идентификатор : 2
Формат : AC-3
Формат/Информация : Audio Coding 3
Коммерческое название : Dolby Digital
Идентификатор кодека : A_AC3
Продолжительность : 1 ч. 43 м.
Вид битрейта : Постоянный
Битрейт : 192 Кбит/сек
Каналы : 2 канала
Channel layout : L R
Частота : 48,0 КГц
Частота кадров : 31,250 кадров/сек (1536 SPF)
Метод сжатия : С потерями
Размер потока : 142 Мбайт (2%)
Заголовок : Профессиональный двухголосый (НТВ+)
Язык : Russian
Service kind : Complete Main
Default : Да
Forced : Нет

Аудио #2
Идентификатор : 3
Формат : FLAC
Формат/Информация : Free Lossless Audio Codec
Идентификатор кодека : A_FLAC
Продолжительность : 1 ч. 43 м.
Вид битрейта : Переменный
Битрейт : 1 048 Кбит/сек
Каналы : 2 канала
Channel layout : L R
Частота : 48,0 КГц
Частота кадров : 11,719 кадров/сек (4096 SPF)
Битовая глубина : 24 бит
Метод сжатия : Без потерь
Размер потока : 772 Мбайт (10%)
Заголовок : FLAC Audio 2 ch 1048 Kbps
Библиотека кодирования : libFLAC 1.2.1 (UTC 2007-09-17)
Язык : English
Default : Нет
Forced : Нет

Текст #1
Идентификатор : 4
Формат : UTF-8
Идентификатор кодека : S_TEXT/UTF8
Идентификатор кодека/Информация : UTF-8 Plain Text
Продолжительность : 1 ч. 40 м.
Битрейт : 142 бит/сек
Count of elements : 1357
Размер потока : 105 Кбайт (0%)
Заголовок : Full-length
Язык : Russian
Default : Нет
Forced : Нет

Текст #2
Идентификатор : 5
Формат : UTF-8
Идентификатор кодека : S_TEXT/UTF8
Идентификатор кодека/Информация : UTF-8 Plain Text
Продолжительность : 1 ч. 40 м.
Битрейт : 90 бит/сек
Count of elements : 1886
Размер потока : 66,4 Кбайт (0%)
Заголовок : Full-length
Язык : English
Default : Нет
Forced : Нет

Текст #3
Идентификатор : 6
Формат : UTF-8
Идентификатор кодека : S_TEXT/UTF8
Идентификатор кодека/Информация : UTF-8 Plain Text
Продолжительность : 1 ч. 40 м.
Битрейт : 92 бит/сек
Count of elements : 1977
Размер потока : 68,4 Кбайт (0%)
Заголовок : SDH
Язык : Russian
Default : Нет
Forced : Нет

Меню
00:00:00.000 : :00:00:00.000
00:03:35.173 : :00:03:35.173
00:08:12.325 : :00:08:12.325
00:15:01.818 : :00:15:01.818
00:16:43.377 : :00:16:43.377
00:20:37.069 : :00:20:37.069
00:25:55.971 : :00:25:55.971
00:30:09.349 : :00:30:09.349
00:34:19.099 : :00:34:19.099
00:38:20.173 : :00:38:20.173
00:42:37.847 : :00:42:37.847
00:47:25.801 : :00:47:25.801
00:50:26.398 : :00:50:26.398
00:54:28.348 : :00:54:28.348
00:58:47.566 : :00:58:47.566
01:05:31.886 : :01:05:31.886
01:08:33.651 : :01:08:33.651
01:13:09.427 : :01:13:09.427
01:16:56.320 : :01:16:56.320
01:19:40.818 : :01:19:40.818
01:24:54.214 : :01:24:54.214
01:29:18.770 : :01:29:18.770
01:34:41.092 : :01:34:41.092
01:37:24.088 : :01:37:24.088
Notes
Fixed OCR subs.
Used bitrate zones on dark scenes with banding.
Скриншоты


Релиз от:
 

Вложения

  • 20,2 KB Просмотры: 0
    Личеров 0
    Сидеров 0
    Файлов 1
    Объем 7,7 GB

Привет!

Мы группа людей которые решили помочь другим в решении их проблем, а так же пользователям с поиском самых свежих и качественных инфопродуктов. За 4 с небольшим месяца мы создали этот форум на который заходят ежедневно тысячи человек и посещаемость постоянно растёт. Мы создали панель лицензирования для защиты PHP скриптов от воровства и SEO панель для мониторинга наших сайтов и выбора верной стратегии их развития. Мы надеемся что то что мы создали пригодится Вам и возможно Вы поможете нам развиваться и совершенствоваться вместе с Вами.

Статистика форума

Темы
406.640
Сообщения
465.116
Пользователи
84.570
Новый пользователь
Azari666

Приложения форума для iOS и Android


У ркн там нет власти ;)
Приватные разговоры
Помощь Пользователи
    Вы не присоединились ни к одной комнате.