За последнюю неделю опубликовано 47 новых материалов.
Инструкция новичку Путеводитель по форуму Прокси для Telegram Показать подсказки , это бомба!

Скачать Больница / The Hospital (1971) BDRip 1080p | P2 бесплатно через торрент

  • Поучаствуй (в качестве покупателя) в любых пяти совместных покупках (кроме завершённых и "Моментальных") и получи группу "Новичок" навсегда -> ссылка на раздел
  • Получай до 480 рублей за каждого приглашенного пользователя!
    представляем Вам очередное расширение партнерской программы, подробности описаны тут -> ссылка
  • 90% материалов доступно к скачиванию после простой регистрации!
    Если же ты хочешь скачивать материалы без требования оставлять отзывы то получи группу "Новичок", 10 способов повышения описаны тут -> ссылка
  • К сожалению количество битых ссылок растет и мы уже не можем их оперативно восстанавливать поэтому просим помощи у каждого нашего пользователя.
    С сегодняшнего дня, за каждую восстановленную ссылку мы заплатим Вам.
    Подробнее тут -> ссылка
  • Перенесем твои заслуги с другого ресурса!
    Мы понимаем как сложно прокачивать аккаунты на форумах, вроде раскачал аккаунт, а тут появляется ресурс в 100 раз круче но тоже с системой прокачки и снова качать аккаунт...
    Предлагаем вам перенести Ваши заслуги на другом подобном ресурсе к нам.
    Подробности описаны тут -> ссылка
  • Вы можете получать по 2.5% с каждой покупки и продажи на маркете! Подробности в теме Партнёрская программа
Если Вы не хотите скачивать, Вы всегда можетепосмотретьонлайн, просто нажмите кнопку ниже :

Открыть плеер

Torrent_Bot

Торрент-Бот
Бот форума
4 Окт 2016
93
160
20



Информация о фильме
Название: Больница
Оригинальное название: The Hospital
Год выхода: 1971
Страна: США
Жанр:драма, комедия, детектив
Режиссер: Артур Хиллер
В ролях: Джордж К. Скотт, Дайана Ригг, Барнард Хьюз, Ричард А. Дайсарт, Стивен Эллиот, Дональд Херрон, Эндрю Дункан, Нэнси Марчанд, Джордан Чарни, Робертс Блоссом

О фильме:
Фильм повествует о истории жизни доктора Бока, главного врача в большой учебной больнице Манхэттана. Бок испытывает кризис середины жизни, кроме того его оставила жена, его лишили детей — он бессилен и уже думает о самоубийстве. Он думает о самоубийстве в стенах больницы и наталкивается на череду якобы несчастных случаев. Некоторые больные умирают не от осложнений, а от ошибочного лечения, назначенного врачами. Люди соблюдают не тот режим, принимают ненужные лекарства, направляются в ненужные отделения хирургии — и в итоге оказываются в списке умерших от естественных причин. Доктор Бок уже не думает о самоубийстве, а пытается разгадать загадку: как сделать так, чтобы ряд причудливых смертельных случаев среди докторов и штата больницы выглядел случайным.



Продолжительность: 01:43:04
Перевод: профессиональный (двухголосый закадровый) НТВ+

О файле:
Качество: BDRip 1080p
Формат: MKV
Видео: H264, 1920x1040, 23.976 fps, 13.7 Mb/s
Аудио: Dolby AC3 48000Hz stereo 192kbps - русский
Аудио 2: DTS 48000Hz stereo 1536kbps - английский
Субтитры: русские, английские, английские (SDH)

Дополнительная информация
Видеоряд - The.Hospital.1971.1080p.BluRay.x264-PSYCHD с известного паблик трекера.
Аудиодорожка НТВ+ с раздачи Pigy на всем известном отечественном трекере.
Русские субтитры от platonych.
MI
General
Unique ID : 131166807858428515642335419517697810982 (0x62ADCEEC83B02F06CD243E6553C46226)
Complete name : The.Hospital.1971.1080p.BluRay.x264.RUS-PSYCHD.mkv
Format : Matroska
Format version : Version 4
File size : 11.1 GiB
Duration : 1 h 43 min
Overall bit rate : 15.4 Mb/s
Encoded date : UTC 2020-06-12 17:45:01
Writing application : mkvmerge v45.0.0 ('Heaven in Pennies') 64-bit
Writing library : libebml v1.3.10 + libmatroska v1.5.2

Video
ID : 1
Format : AVC
Format/Info : Advanced Video Codec
Format profile : [email protected]
Format settings : CABAC / 4 Ref Frames
Format settings, CABAC : Yes
Format settings, Reference fra : 4 frames
Codec ID : V_MPEG4/ISO/AVC
Duration : 1 h 43 min
Bit rate : 13.7 Mb/s
Width : 1 920 pixels
Height : 1 040 pixels
Display aspect ratio : 1.85:1
Frame rate mode : Constant
Frame rate : 23.976 (24000/1001) FPS
Color space : YUV
Chroma subsampling : 4:2:0
Bit depth : 8 bits
Scan type : Progressive
Bits/(Pixel*Frame) : 0.286
Stream size : 9.84 GiB (89%)
Writing library : x264 core 155 r2893 b00bcaf
Encoding settings : cabac=1 / ref=4 / deblock=1:-3:-3 / analyse=0x3:0x113 / me=umh / subme=8 / psy=1 / psy_rd=1.10:0.00 / mixed_ref=1 / me_range=32 / chroma_me=1 / trellis=2 / 8x8dct=1 / cqm=0 / deadzone=21,11 / fast_pskip=1 / chroma_qp_offset=-2 / threads=18 / lookahead_threads=3 / sliced_threads=0 / nr=0 / decimate=1 / interlaced=0 / bluray_compat=0 / constrained_intra=0 / bframes=3 / b_pyramid=2 / b_adapt=2 / b_bias=0 / direct=3 / weightb=1 / open_gop=0 / weightp=2 / keyint=240 / keyint_min=24 / scenecut=40 / intra_refresh=0 / rc_lookahead=50 / rc=2pass / mbtree=1 / bitrate=13675 / ratetol=1.0 / qcomp=0.60 / qpmin=0 / qpmax=69 / qpstep=4 / cplxblur=20.0 / qblur=0.5 / ip_ratio=1.40 / aq=3:0.75
Default : Yes
Forced : No

Audio #1
ID : 2
Format : AC-3
Format/Info : Audio Coding 3
Commercial name : Dolby Digital
Codec ID : A_AC3
Duration : 1 h 43 min
Bit rate mode : Constant
Bit rate : 192 kb/s
Channel(s) : 2 channels
Channel layout : L R
Sampling rate : 48.0 kHz
Frame rate : 31.250 FPS (1536 SPF)
Compression mode : Lossy
Stream size : 142 MiB (1%)
Title : DVO HTB+
Language : Russian
Service kind : Complete Main
Default : Yes
Forced : No

Audio #2
ID : 3
Format : DTS
Format/Info : Digital Theater Systems
Codec ID : A_DTS
Duration : 1 h 43 min
Bit rate mode : Constant
Bit rate : 1 509 kb/s
Channel(s) : 2 channels
Channel layout : L R
Sampling rate : 48.0 kHz
Frame rate : 93.750 FPS (512 SPF)
Bit depth : 24 bits
Compression mode : Lossy
Stream size : 1.09 GiB (10%)
Title : English
Language : English
Default : No
Forced : No

Text #1
ID : 4
Format : UTF-8
Codec ID : S_TEXT/UTF8
Codec ID/Info : UTF-8 Plain Text
Duration : 1 h 40 min
Bit rate : 142 b/s
Count of elements : 1358
Stream size : 105 KiB (0%)
Title : Russian
Language : Russian
Default : No
Forced : No

Text #2
ID : 5
Format : UTF-8
Codec ID : S_TEXT/UTF8
Codec ID/Info : UTF-8 Plain Text
Duration : 1 h 40 min
Bit rate : 90 b/s
Count of elements : 1886
Stream size : 66.4 KiB (0%)
Title : English
Language : English
Default : No
Forced : No

Text #3
ID : 6
Format : UTF-8
Codec ID : S_TEXT/UTF8
Codec ID/Info : UTF-8 Plain Text
Duration : 1 h 40 min
Bit rate : 92 b/s
Count of elements : 1977
Stream size : 68.4 KiB (0%)
Title : English SDH
Language : English
Default : No
Forced : No

Menu
00:00:00.000 : en:00:00:00.000
00:03:35.173 : en:00:03:35.173
00:08:12.325 : en:00:08:12.325
00:15:01.818 : en:00:15:01.818
00:16:43.377 : en:00:16:43.377
00:20:37.069 : en:00:20:37.069
00:25:55.971 : en:00:25:55.971
00:30:09.349 : en:00:30:09.349
00:34:19.099 : en:00:34:19.099
00:38:20.173 : en:00:38:20.173
00:42:37.847 : en:00:42:37.847
00:47:25.801 : en:00:47:25.801
00:50:26.398 : en:00:50:26.398
00:54:28.348 : en:00:54:28.348
00:58:47.566 : en:00:58:47.566
01:05:31.886 : en:01:05:31.886
01:08:33.651 : en:01:08:33.651
01:13:09.427 : en:01:13:09.427
01:16:56.320 : en:01:16:56.320
01:19:40.818 : en:01:19:40.818
01:24:54.214 : en:01:24:54.214
01:29:18.770 : en:01:29:18.770
01:34:41.092 : en:01:34:41.092
01:37:24.088 : en:01:37:24.088
Скриншоты

 

Вложения

  • 111,8 KB Просмотры: 0
    Личеров 0
    Сидеров 0
    Файлов 1
    Объем 11,1 GB

Привет!

Мы группа людей которые решили помочь другим в решении их проблем, а так же пользователям с поиском самых свежих и качественных инфопродуктов. За 4 с небольшим месяца мы создали этот форум на который заходят ежедневно тысячи человек и посещаемость постоянно растёт. Мы создали панель лицензирования для защиты PHP скриптов от воровства и SEO панель для мониторинга наших сайтов и выбора верной стратегии их развития. Мы надеемся что то что мы создали пригодится Вам и возможно Вы поможете нам развиваться и совершенствоваться вместе с Вами.

Статистика форума

Темы
406.640
Сообщения
465.123
Пользователи
84.582
Новый пользователь
mladshiy

Приложения форума для iOS и Android


У ркн там нет власти ;)
Приватные разговоры
Помощь Пользователи
    Вы не присоединились ни к одной комнате.