За последнюю неделю опубликовано 53 новых материалов.
Инструкция новичку Путеводитель по форуму Прокси для Telegram Показать подсказки , это бомба!

Скачать Боксер / Парень из Филадельфии / The Philly Kid (2012) BDRip-AVC от ExKinoRay бесплатно через торрент

  • Поучаствуй (в качестве покупателя) в любых пяти совместных покупках (кроме завершённых и "Моментальных") и получи группу "Новичок" навсегда -> ссылка на раздел
  • Получай до 480 рублей за каждого приглашенного пользователя!
    представляем Вам очередное расширение партнерской программы, подробности описаны тут -> ссылка
  • 90% материалов доступно к скачиванию после простой регистрации!
    Если же ты хочешь скачивать материалы без требования оставлять отзывы то получи группу "Новичок", 10 способов повышения описаны тут -> ссылка
  • К сожалению количество битых ссылок растет и мы уже не можем их оперативно восстанавливать поэтому просим помощи у каждого нашего пользователя.
    С сегодняшнего дня, за каждую восстановленную ссылку мы заплатим Вам.
    Подробнее тут -> ссылка
  • Перенесем твои заслуги с другого ресурса!
    Мы понимаем как сложно прокачивать аккаунты на форумах, вроде раскачал аккаунт, а тут появляется ресурс в 100 раз круче но тоже с системой прокачки и снова качать аккаунт...
    Предлагаем вам перенести Ваши заслуги на другом подобном ресурсе к нам.
    Подробности описаны тут -> ссылка
  • Вы можете получать по 2.5% с каждой покупки и продажи на маркете! Подробности в теме Партнёрская программа
Если Вы не хотите скачивать, Вы всегда можетепосмотретьонлайн, просто нажмите кнопку ниже :

Открыть плеер

Torrent_Bot

Торрент-Бот
Бот форума
4 Окт 2016
102
157
20



Информация о фильме
Название: Боксер / Парень из Филадельфии
Оригинальное название: The Philly Kid
Год выхода: 2012
Жанр: Боевик, драма
Режиссер: Джейсон Коннери
В ролях: Уэс Чэтэм, Девон Сава, Сара Батлер, Нил МакДонаф, Лаки Джонсон, Крис Браунинг, Адам Мервис, Бернард Хок, Ава Богл, Эрик Скотт Вудс, Майкл Джей Уайт, Эндрю Сенсениг, Рич Клементи, Ронда Флойд Агийар, Ричард Эрвуд, Грэйлен Брайант Бэнкс, Эндрю Бентлер, Кайл Брэдли, Дэнни Космо Хиггинботтом, Дженнифер Куликкья, Джон Эванс, Дж.Д. Эвермор, Дуглас М. Гриффин, Меган Харман, Брэндон Хэйес, ЛаТойя Джонсон, Трэйси Джонсон, Блисс Келли, Лейси Ламберт


О фильме:
После 10-летнего тюремного заключения освобожден под честное слово борец-бывший чемпион Национальной Атлетической Ассоциации. Теперь чтобы спасти жизнь другу он должен сделать невозможное для себя, проиграть в серии борцовских поединков в клетке.



Страна: США, AfterDark Films, Fourth Floor Productions
Продолжительность: 01:34:00
Перевод: Профессиональный многоголосый, профессиональный двухголосый
Субтитры: Английские
Дата релиза: 20.01.2013

Файл
Кодек: H.264
Качество: BDRip-AVC
Видео: MPEG-4 AVC, 2500 Кбит/с, 1024x576
Звук: Русский (AC3, 2 ch, 192 Кбит/с), (AC3, 6 ch, 448 Кбит/с), aнглийский (AC3, 6 ch, 448
Кбит/с)

MediaInfo
Общее
Уникальный идентификатор : 251037921503238678567070281354584936427 (0xBCDC2520078FD92088821BF2269A4FEB)
Полное имя : D:1Bokser.2012.x264.BDRip.(AVC).ExKinoRay.mkv
Формат : Matroska
Версия формата : Version 2
Размер файла : 2,36 Гбайт
Продолжительность : 1 ч. 34 м.
Общий поток : 3587 Кбит/сек
Название фильма : Bokser.2012.x264.BDRip.(AVC).ExKinoRay
Дата кодирования : UTC 2013-01-20 17:26:35
Программа кодирования : mkvmerge v4.0.0 ('The Stars were mine') сборка от Jun 6 2010 16:18:42
Библиотека кодирования : libebml v1.0.0 + libmatroska v1.0.0

Видео
Идентификатор : 1
Формат : AVC
Формат/Информация : Advanced Video Codec
Профиль формата : High@L4.1
Параметр CABAC формата : Да
Параметр ReFrames формата : 8 кадров
Идентификатор кодека : V_MPEG4/ISO/AVC
Продолжительность : 1 ч. 34 м.
Битрейт : 2500 Кбит/сек
Ширина : 1024 пикселя
Высота : 576 пикселей
Соотношение сторон : 16:9
Частота кадров : 23,976 кадра/сек
Цветовое пространство : YUV
Субдискретизация насыщенности : 4:2:0
Битовая глубина : 8 бит
Тип развёртки : Прогрессивная
Бит/(Пиксели*Кадры) : 0.177
Размер потока : 1,59 Гбайт (68%)
Заголовок : Rip by Enigma-Vladislav71
Библиотека кодирования : x264 core 129 r2230 1cffe9f
Настройки программы : cabac=1 / ref=8 / deblock=1:-2:-2 / analyse=0x3:0x133 / me=umh / subme=11 / psy=1 / psy_rd=1.00:0.00 / mixed_ref=1 / me_range=48 / chroma_me=1 / trellis=2 / 8x8dct=1 / cqm=0 / deadzone=21,11 / fast_pskip=0 / chroma_qp_offset=-2 / threads=3 / lookahead_threads=1 / sliced_threads=0 / nr=0 / decimate=0 / interlaced=0 / bluray_compat=0 / constrained_intra=0 / bframes=8 / b_pyramid=2 / b_adapt=2 / b_bias=0 / direct=3 / weightb=1 / open_gop=0 / weightp=2 / keyint=240 / keyint_min=23 / scenecut=40 / intra_refresh=0 / rc_lookahead=40 / rc=2pass / mbtree=1 / bitrate=2500 / ratetol=1.0 / qcomp=0.60 / qpmin=10 / qpmax=51 / qpstep=4 / cplxblur=20.0 / qblur=0.5 / ip_ratio=1.40 / aq=2:1.00
Язык : English

Аудио #1
Идентификатор : 2
Формат : AC-3
Формат/Информация : Audio Coding 3
Расширение режима : CM (complete main)
Идентификатор кодека : A_AC3
Продолжительность : 1 ч. 34 м.
Вид битрейта : Постоянный
Битрейт : 192 Кбит/сек
Каналы : 2 канала
Расположение каналов : Front: L R
Частота : 48,0 КГц
Битовая глубина : 16 бит
Метод сжатия : С потерями
Размер потока : 129 Мбайт (5%)
Заголовок : многоголосый
Язык : Russian

Аудио #2
Идентификатор : 3
Формат : AC-3
Формат/Информация : Audio Coding 3
Расширение режима : CM (complete main)
Идентификатор кодека : A_AC3
Продолжительность : 1 ч. 34 м.
Вид битрейта : Постоянный
Битрейт : 448 Кбит/сек
Каналы : 6 каналов
Расположение каналов : Front: L C R, Side: L R, LFE
Частота : 48,0 КГц
Битовая глубина : 16 бит
Метод сжатия : С потерями
Размер потока : 301 Мбайт (12%)
Заголовок : двухголосый
Язык : Russian

Аудио #3
Идентификатор : 4
Формат : AC-3
Формат/Информация : Audio Coding 3
Расширение режима : CM (complete main)
Идентификатор кодека : A_AC3
Продолжительность : 1 ч. 34 м.
Вид битрейта : Постоянный
Битрейт : 448 Кбит/сек
Каналы : 6 каналов
Расположение каналов : Front: L C R, Side: L R, LFE
Частота : 48,0 КГц
Битовая глубина : 16 бит
Метод сжатия : С потерями
Размер потока : 301 Мбайт (12%)
Заголовок : aнглийский
Язык : English

Текст
Идентификатор : 5
Формат : UTF-8
Идентификатор кодека : S_TEXT/UTF8
Идентификатор кодека/Информация : UTF-8 Plain Text
Язык : English

Семпл

Скриншоты

Релиз от:

Автор релиза:
 

Вложения

  • 12,9 KB Просмотры: 1
    Личеров 0
    Сидеров 0
    Файлов 1
    Объем 2,4 GB

Привет!

Мы группа людей которые решили помочь другим в решении их проблем, а так же пользователям с поиском самых свежих и качественных инфопродуктов. За 4 с небольшим месяца мы создали этот форум на который заходят ежедневно тысячи человек и посещаемость постоянно растёт. Мы создали панель лицензирования для защиты PHP скриптов от воровства и SEO панель для мониторинга наших сайтов и выбора верной стратегии их развития. Мы надеемся что то что мы создали пригодится Вам и возможно Вы поможете нам развиваться и совершенствоваться вместе с Вами.

Статистика форума

Темы
405.476
Сообщения
462.589
Пользователи
80.678
Новый пользователь
lesopic

Приложения форума для iOS и Android


У ркн там нет власти ;)
Приватные разговоры
Помощь Пользователи
    Вы не присоединились ни к одной комнате.