За последнюю неделю опубликовано 73 новых материалов.
Инструкция новичку Путеводитель по форуму Прокси для Telegram Показать подсказки , это бомба!

Скачать Бойтесь ходячих мертвецов / Fear the Walking Dead [S05] (2019) WEB-DL 720p | AMS бесплатно через торрент

  • Поучаствуй (в качестве покупателя) в любых пяти совместных покупках (кроме завершённых и "Моментальных") и получи группу "Новичок" навсегда -> ссылка на раздел
  • Получай до 480 рублей за каждого приглашенного пользователя!
    представляем Вам очередное расширение партнерской программы, подробности описаны тут -> ссылка
  • 90% материалов доступно к скачиванию после простой регистрации!
    Если же ты хочешь скачивать материалы без требования оставлять отзывы то получи группу "Новичок", 10 способов повышения описаны тут -> ссылка
  • К сожалению количество битых ссылок растет и мы уже не можем их оперативно восстанавливать поэтому просим помощи у каждого нашего пользователя.
    С сегодняшнего дня, за каждую восстановленную ссылку мы заплатим Вам.
    Подробнее тут -> ссылка
  • Перенесем твои заслуги с другого ресурса!
    Мы понимаем как сложно прокачивать аккаунты на форумах, вроде раскачал аккаунт, а тут появляется ресурс в 100 раз круче но тоже с системой прокачки и снова качать аккаунт...
    Предлагаем вам перенести Ваши заслуги на другом подобном ресурсе к нам.
    Подробности описаны тут -> ссылка
  • Вы можете получать по 2.5% с каждой покупки и продажи на маркете! Подробности в теме Партнёрская программа
Если Вы не хотите скачивать, Вы всегда можетепосмотретьонлайн, просто нажмите кнопку ниже :

Открыть плеер

Torrent_Bot

Торрент-Бот
Бот форума
4 Окт 2016
123
108
20



Бойтесь ходячих мертвецов / Fear the Walking Dead

Страна: США
Производство: Skybound Entertainment, AMC Studios, Valhalla Entertainment
Год выпуска: 2019
Жанр: ужасы, фантастика, триллер, драма
Продолжительность: 16х ~00:46:00

Режиссеры: Майкл Е. Сатраземис, Джессика Лори
В ролях: Ленни Джеймс, Алисия Дебнем-Кери, Мэгги Грэйс, Колман Доминго, Денай Гарсиа, Гаррет Диллахант, Алекса Нисенсон, Дженна Элфман

Описание: Действия сериала происходят параллельно с событиями зомби-апокалипсиса, показанными в сериале «Ходячие мертвецы», но в совершенно другом месте — Лос-Анджелесе. В центре сюжета находится семья матери-одиночки и консультанта по профессиям Мэдисон Кларк и разведённого учителя Трэвиса Манавы, которые вместе пытаются выжить в зомби-апокалипсисе...



Перевод: Любительский (многоголосый, закадровый) | AMS
Субтитры: английские (full + SDH)


Качество: WEB-DL 720p
Формат: MKV
Видео кодек: AVC
Аудио кодек: АС3
Видео: 1280x720 (16:9), 23.976 fps, MPEG-4 AVC ~4 740 kbps avg
Аудио №1: 48.0 kHz, AC3 Dolby Digital, 3/2 (L,C,R,l,r) + LFE ch, ~640 kbps | RUS
Аудио №2: 48.0 kHz, AC3 Dolby Digital, 3/2 (L,C,R,l,r) + LFE ch, ~640 kbps | ENG
Формат субтитров: UTF-8 Plain Text

Дата премьеры (мир): 2 июня 2019

Дополнительная информация: в начале и конце серии присутствует небольшая звуковая реклама
Media Info
General
Unique ID : 321366527436902291765399671949688249209 (0xF1C4F11BDDA03668CD073FE2B78F1B79)
Complete name : Fear.the.Walking.Dead.S05E01.720p.WEB-DL.AMS.mkv
Format : Matroska
Format version : Version 4
File size : 1.92 GiB
Duration : 45mn 44s
Overall bit rate : 6 022 Kbps
Movie name : Fear the Walking Dead 5x01 - MVO AMS
Encoded date : UTC 2019-06-13 20:56:48
Writing application : mkvmerge v8.2.0 ('World of Adventure') 64bit
Writing library : libebml v1.3.1 + libmatroska v1.4.2

Video
ID : 1
Format : AVC
Format/Info : Advanced Video Codec
Format profile : High@L3.1
Format settings : CABAC / 4 Ref Frames
Format settings, CABAC : Yes
Format settings, ReFrames : 4 frames
Codec ID : V_MPEG4/ISO/AVC
Duration : 45mn 44s
Bit rate mode : Constant
Bit rate : 4 740 Kbps
Nominal bit rate : 6 000 Kbps
Width : 1 280 pixels
Height : 720 pixels
Display aspect ratio : 16:9
Frame rate mode : Constant
Frame rate : 23.976 (24000/1001) fps
Color space : YUV
Chroma subsampling : 4:2:0
Bit depth : 8 bits
Scan type : Progressive
Bits/(Pixel*Frame) : 0.214
Stream size : 1.51 GiB (79%)
Title : Fear the Walking Dead 5x01 - MVO AMS
Default : Yes
Forced : No
Color range : Limited
Color primaries : BT.709
Transfer characteristics : BT.709
Matrix coefficients : BT.709

Audio #1
ID : 2
Format : AC-3
Format/Info : Audio Coding 3
Commercial name : Dolby Digital
Codec ID : A_AC3
Duration : 45mn 44s
Bit rate mode : Constant
Bit rate : 640 Kbps
Channel(s) : 6 channels
Channel layout : L R C LFE Ls Rs
Sampling rate : 48.0 KHz
Frame rate : 31.250 fps (1536 SPF)
Bit depth : 16 bits
Compression mode : Lossy
Stream size : 209 MiB (11%)
Title : MVO AMS
Language : Russian
Service kind : Complete Main
Default : Yes
Forced : No

Audio #2
ID : 3
Format : AC-3
Format/Info : Audio Coding 3
Commercial name : Dolby Digital
Codec ID : A_AC3
Duration : 45mn 44s
Bit rate mode : Constant
Bit rate : 640 Kbps
Channel(s) : 6 channels
Channel layout : L R C LFE Ls Rs
Sampling rate : 48.0 KHz
Frame rate : 31.250 fps (1536 SPF)
Bit depth : 16 bits
Compression mode : Lossy
Stream size : 209 MiB (11%)
Title : Original
Language : English
Service kind : Complete Main
Default : No
Forced : No

Text #1
ID : 4
Format : UTF-8
Codec ID : S_TEXT/UTF8
Codec ID/Info : UTF-8 Plain Text
Duration : 44mn 52s
Bit rate : 42 bps
Count of elements : 567
Stream size : 14.1 KiB (0%)
Title : Eng-Subs
Language : English
Default : No
Forced : No

Text #2
ID : 5
Format : UTF-8
Codec ID : S_TEXT/UTF8
Codec ID/Info : UTF-8 Plain Text
Duration : 45mn 38s
Bit rate : 49 bps
Count of elements : 800
Stream size : 16.4 KiB (0%)
Title : Eng-Subs (SDH)
Language : English
Default : No
Forced : No
Скриншоты
 

Вложения

  • 159,9 KB Просмотры: 0
    Личеров 0
    Сидеров 0
    Файлов 16
    Объем 31,5 GB

Привет!

Мы группа людей которые решили помочь другим в решении их проблем, а так же пользователям с поиском самых свежих и качественных инфопродуктов. За 4 с небольшим месяца мы создали этот форум на который заходят ежедневно тысячи человек и посещаемость постоянно растёт. Мы создали панель лицензирования для защиты PHP скриптов от воровства и SEO панель для мониторинга наших сайтов и выбора верной стратегии их развития. Мы надеемся что то что мы создали пригодится Вам и возможно Вы поможете нам развиваться и совершенствоваться вместе с Вами.

Статистика форума

Темы
384.687
Сообщения
427.975
Пользователи
59.218
Новый пользователь
vvv37

Приложения форума для iOS и Android


У ркн там нет власти ;)
Приватные разговоры
Помощь Пользователи
    Вы не присоединились ни к одной комнате.