За последнюю неделю опубликовано 57 новых материалов.
Инструкция новичку Путеводитель по форуму Прокси для Telegram Показать подсказки , это бомба!

Скачать Бог смерти / Matar a Dios / Killing God (2017) WEBRip-AVC | L бесплатно через торрент

  • Поучаствуй (в качестве покупателя) в любых пяти совместных покупках (кроме завершённых и "Моментальных") и получи группу "Новичок" навсегда -> ссылка на раздел
  • Получай до 480 рублей за каждого приглашенного пользователя!
    представляем Вам очередное расширение партнерской программы, подробности описаны тут -> ссылка
  • 90% материалов доступно к скачиванию после простой регистрации!
    Если же ты хочешь скачивать материалы без требования оставлять отзывы то получи группу "Новичок", 10 способов повышения описаны тут -> ссылка
  • К сожалению количество битых ссылок растет и мы уже не можем их оперативно восстанавливать поэтому просим помощи у каждого нашего пользователя.
    С сегодняшнего дня, за каждую восстановленную ссылку мы заплатим Вам.
    Подробнее тут -> ссылка
  • Перенесем твои заслуги с другого ресурса!
    Мы понимаем как сложно прокачивать аккаунты на форумах, вроде раскачал аккаунт, а тут появляется ресурс в 100 раз круче но тоже с системой прокачки и снова качать аккаунт...
    Предлагаем вам перенести Ваши заслуги на другом подобном ресурсе к нам.
    Подробности описаны тут -> ссылка
  • Вы можете получать по 2.5% с каждой покупки и продажи на маркете! Подробности в теме Партнёрская программа
Если Вы не хотите скачивать, Вы всегда можетепосмотретьонлайн, просто нажмите кнопку ниже :

Открыть плеер

Torrent_Bot

Торрент-Бот
Бот форума
4 Окт 2016
92
163
20

Информация о фильме
Название: Бог смерти / Убить бога
Оригинальное название: Matar a Dios / Killing God
Год выхода: 2017
Жанр: Комедия, детектив, фэнтези, ужасы
Режиссер: Кайе Касас, Альберт Пинто
В ролях: Эдуардо Антунья, Ициар Кастро, Эмилио Гавира, Франсеск Орелья, Дэвид Парейа, Борис Руис, Анна Марти Касас, Бруна Сала, Макарена Гомес, Бернардо Гульельметти

О фильме:
В канун Нового года супруги Ана и Карлос выясняют отношения - босс Аны прислал ей смс, которое не даёт супругу покоя. Вечером на ужин приезжают брат и отец Карлоса, а после ужина в доме обнаруживается бомжеватого вида карлик, который заявляет, что он является Богом смерти, и человечество к утру прекратит существование. Но собравшейся компании выпадает редкий шанс - они могут выбрать двух человек, которые останутся жить на земле.



Страна: Испания, Франция
Студия: Alhena Production, New Morning Films
Продолжительность: 01:29:02
Озвучка: Любительский многоголосый | [datynet, Кирилл Адылшин, Galina Vasyukova]
Перевод: Куценко
*** Присутствует ненормативная лексика!

Файл
Формат: Matroska
Качество: WEBRip-AVC
Видео: 1046x438 at 25.000 fps, [email protected], ~1276 kbps
Аудио: AC3, 2 ch, ~192 kbps - | Русский | -
Субтитры: Английские
Формат субтитров: softsub (SRT)
► Без Рекламы!

***Релиз от:-=DoMiNo=-

M/I
x264 [info]: frame I:1120 Avg QP:14.56 size: 60417
x264 [info]: frame P:31645 Avg QP:15.90 size: 14464
x264 [info]: frame B:100769 Avg QP:17.42 size: 3240
x264 [info]: consecutive B-frames: 1.8% 2.8% 10.5% 38.3% 19.2% 22.7% 2.7% 0.7% 0.3% 0.1%

General
Format : Matroska
Format version : Version 4
File size : 936 MiB
Duration : 1 h 29 min
Overall bit rate : 1 470 kb/s
Movie name : Бог смерти.(2017).WEBRip-AVC.[-=DoMiNo=-]
Encoded date : UTC 2020-08-09 17:07:28
Writing application : mkvmerge v49.0.0 ('Sick Of Losing Soulmates') 64-bit
Writing library : libebml v1.4.0 + libmatroska v1.6.1
Cover : Yes
Attachments : Cover.jpg / Cover 2.jpg

Video
ID : 1
Format : AVC
Format/Info : Advanced Video Codec
Format profile : [email protected]
Format settings : CABAC / 10 Ref Frames
Format settings, CABAC : Yes
Format settings, Reference : 10 frames
Codec ID : V_MPEG4/ISO/AVC
Duration : 1 h 29 min
Bit rate : 1 276 kb/s
Width : 1 046 pixels
Height : 438 pixels
Display aspect ratio : 2.40:1
Frame rate mode : Constant
Frame rate : 25.000 FPS
Color space : YUV
Chroma subsampling : 4:2:0
Bit depth : 8 bits
Scan type : Progressive
Bits/(Pixel*Frame) : 0.111
Stream size : 812 MiB (87%)
Title : -=DoMiNo=-
Writing library : x264 core 161 r3018 db0d417
Encoding settings : cabac=1 / ref=10 / deblock=1:-3:-3 / analyse=0x3:0x133 / me=umh / subme=10 / psy=1 / psy_rd=1.00:0.15 / mixed_ref=1 / me_range=32 / chroma_me=1 / trellis=2 / 8x8dct=1 / cqm=0 / deadzone=21,11 / fast_pskip=1 / chroma_qp_offset=-3 / threads=6 / lookahead_threads=1 / sliced_threads=0 / nr=0 / decimate=1 / interlaced=0 / bluray_compat=0 / constrained_intra=0 / bframes=9 / b_pyramid=2 / b_adapt=2 / b_bias=0 / direct=1 / weightb=1 / open_gop=0 / weightp=2 / keyint=250 / keyint_min=25 / scenecut=40 / intra_refresh=0 / rc_lookahead=60 / rc=crf / mbtree=0 / crf=19.0 / qcomp=0.60 / qpmin=0 / qpmax=69 / qpstep=4 / vbv_maxrate=50000 / vbv_bufsize=62500 / crf_max=0.0 / nal_hrd=none / filler=0 / ip_ratio=1.40 / pb_ratio=1.30 / aq=1:1.00
Language : English
Default : Yes
Forced : No
Color range : Limited
Color primaries : BT.709
Transfer characteristics : BT.709
Matrix coefficients : BT.709

Audio
ID : 2
Format : AC-3
Format/Info : Audio Coding 3
Commercial name : Dolby Digital
Codec ID : A_AC3
Duration : 1 h 29 min
Bit rate mode : Constant
Bit rate : 192 kb/s
Channel(s) : 2 channels
Channel layout : L R
Sampling rate : 48.0 kHz
Frame rate : 31.250 FPS (1536 SPF)
Compression mode : Lossy
Stream size : 122 MiB (13%)
Title : MVO_L_[datynet, Кирилл Адылшин, Galina Vasyukova]
Language : Russian
Service kind : Complete Main
Default : Yes
Forced : No

Text #1
ID : 3
Format : UTF-8
Codec ID : S_TEXT/UTF8
Codec ID/Info : UTF-8 Plain Text
Duration : 1 h 22 min
Bit rate : 58 b/s
Count of elements : 1146
Stream size : 35.6 KiB (0%)
Language : English
Default : No
Forced : No

Text #2
ID : 4
Format : UTF-8
Codec ID : S_TEXT/UTF8
Codec ID/Info : UTF-8 Plain Text
Duration : 1 h 26 min
Bit rate : 57 b/s
Count of elements : 1196
Stream size : 36.4 KiB (0%)
Title : SDH
Language : English
Default : No
Forced : No

Menu
00:00:00.000 : :Глава 01
00:07:30.000 : :Глава 02
00:15:00.000 : :Глава 03
00:22:30.000 : :Глава 04
00:30:00.000 : :Глава 05
00:37:30.000 : :Глава 06
00:45:00.000 : :Глава 07
00:52:30.000 : :Глава 08
01:00:00.000 : :Глава 09
01:07:30.000 : :Глава 10
01:15:00.000 : :Глава 11
01:22:30.000 : :Глава 12
Скриншоты
 

Вложения

  • 37,7 KB Просмотры: 0
    Личеров 0
    Сидеров 0
    Файлов 1
    Объем 936,1 MB

Привет!

Мы группа людей которые решили помочь другим в решении их проблем, а так же пользователям с поиском самых свежих и качественных инфопродуктов. За 4 с небольшим месяца мы создали этот форум на который заходят ежедневно тысячи человек и посещаемость постоянно растёт. Мы создали панель лицензирования для защиты PHP скриптов от воровства и SEO панель для мониторинга наших сайтов и выбора верной стратегии их развития. Мы надеемся что то что мы создали пригодится Вам и возможно Вы поможете нам развиваться и совершенствоваться вместе с Вами.

Статистика форума

Темы
406.698
Сообщения
465.161
Пользователи
84.787
Новый пользователь
Freckle

Приложения форума для iOS и Android


У ркн там нет власти ;)
Приватные разговоры
Помощь Пользователи
    Вы не присоединились ни к одной комнате.