За последнюю неделю опубликовано 37 новых материалов.
Инструкция новичку Путеводитель по форуму Прокси для Telegram Показать подсказки , это бомба!

Скачать Бог людоедов / La montagna del dio cannibale (1978) BDRip 720p от KORSAR | P, A бесплатно через торрент

  • Поучаствуй (в качестве покупателя) в любых пяти совместных покупках (кроме завершённых и "Моментальных") и получи группу "Новичок" навсегда -> ссылка на раздел
  • Получай до 480 рублей за каждого приглашенного пользователя!
    представляем Вам очередное расширение партнерской программы, подробности описаны тут -> ссылка
  • 90% материалов доступно к скачиванию после простой регистрации!
    Если же ты хочешь скачивать материалы без требования оставлять отзывы то получи группу "Новичок", 10 способов повышения описаны тут -> ссылка
  • К сожалению количество битых ссылок растет и мы уже не можем их оперативно восстанавливать поэтому просим помощи у каждого нашего пользователя.
    С сегодняшнего дня, за каждую восстановленную ссылку мы заплатим Вам.
    Подробнее тут -> ссылка
  • Перенесем твои заслуги с другого ресурса!
    Мы понимаем как сложно прокачивать аккаунты на форумах, вроде раскачал аккаунт, а тут появляется ресурс в 100 раз круче но тоже с системой прокачки и снова качать аккаунт...
    Предлагаем вам перенести Ваши заслуги на другом подобном ресурсе к нам.
    Подробности описаны тут -> ссылка
  • Вы можете получать по 2.5% с каждой покупки и продажи на маркете! Подробности в теме Партнёрская программа
Если Вы не хотите скачивать, Вы всегда можетепосмотретьонлайн, просто нажмите кнопку ниже :

Открыть плеер

Torrent_Bot

Торрент-Бот
Бот форума
4 Окт 2016
90
166
20
Информация о фильме
Название: Бог людоедов / Гора бога людоедов / Бог каннибалов / Тайна горы Ра-Рами / Рабыня бога каннибалов
Оригинальное название: La montagna del dio cannibale / The Mountain of the Cannibal God / Primitive Desires / Prisoner of the Cannibal God
Год выпуска: 1978
Выпущено: Италия, Dania Film, Medusa Distribuzione
Жанр:Ужасы, приключения
Режиссер: Серджо Мартино
В ролях: Урсула Андресс, Стейси Кич, Клаудио Кассинелли, Антонио Марсина, Франко Фантазия, Ланфранко Спинола, Карло Лонги, Луиджина Рокки, Акушула Селайя, Дадли Ванагуру

О фильме: Профессор думал, что людоеды племени Пуко вымерли. В 20-ти часах лета от Лондона находится дикий первобытный мир.Этнолог Стивенсон, отчаявшись получить разрешение на экспедицию в джунгли Марабата на Новой Гвинее, отправляется туда нелегально. Его цель — найти племя людоедов Пуко, которое многие ученые считают вымершим. Профессор исчез бесследно.Его жена Сьюзан и ее брат Артур пытаются найти ученого. Местные власти боятся проклятого места как огня. Отважным путешественникам придется полагаться лишь на удачу и профессионального знатока джунглей Эдварда Фостера.Ядовитые змеи и крокодилы, непроходимые болота и ямы-ловушки. Но самое страшное ожидает их у цели: что за тайна витает над «Горой Бога Людоедов» — таинственный Ра-Рами?

Продолжительность: 01:40:29
Перевод: Профессиональный многоголосый, авторский
Субтитры: Нет
Навигация по главам: Есть

Файл
Качество: BDRip 720p
Видео: MPEG-4 AVC, 4898 Кбит/сек, 1278x544, 24,000 кадра/сек
Аудио #1: AC3, 2 ch, 192 Кбит/сек | Русский, профессиональный (многоголосый закадровый)
Аудио #2: AC3, 2 ch, 192 Кбит/сек | Русский, авторский (одноголосый закадровый) Евгений Гранкин
Аудио #3: AC3, 2 ch, 384 Кбит/сек | Английский, оригинал



Скриншоты
Инфо-файл
x264 [info]: frame I:976 Avg QP:16.05 size: 97990
x264 [info]: frame P:32635 Avg QP:18.95 size: 42803
x264 [info]: frame B:111080 Avg QP:20.56 size: 19797
-----------------------------------------------------
Общее
Уникальный идентификатор : 190897779428785602819057707218077239684 (0x8F9D93315BA3A3F4AE20F6B014A44984)
Полное имя : Бог людоедов 1978Бог.людоедов.1978.BDRip.720p.KORSAR.mkv
Формат : Matroska
Версия формата : Version 2
Размер файла : 3,98 Гбайт
Продолжительность : 1 ч. 40 м.
Общий поток : 5669 Кбит/сек
Дата кодирования : UTC 2018-09-03 13:14:06
Программа кодирования : mkvmerge v5.8.0 ('No Sleep / Pillow') built on Sep 2 2012 15:37:04
Библиотека кодирования : libebml v1.2.3 + libmatroska v1.3.0

Видео
Идентификатор : 1
Формат : AVC
Формат/Информация : Advanced Video Codec
Профиль формата : [email protected]
Настройки формата : CABAC / 9 Ref Frames
Параметр CABAC формата : Да
Параметр RefFrames формата : 9 кадров
Идентификатор кодека : V_MPEG4/ISO/AVC
Продолжительность : 1 ч. 40 м.
Битрейт : 4898 Кбит/сек
Ширина : 1278 пикселей
Высота : 544 пикселя
Соотношение сторон : 2,35:1
Режим частоты кадров : Постоянный
Частота кадров : 24,000 кадра/сек
Цветовое пространство : YUV
Субдискретизация насыщенности : 4:2:0
Битовая глубина : 8 бит
Тип развёртки : Прогрессивная
Бит/(Пиксели*Кадры) : 0.294
Размер потока : 3,36 Гбайт (84%)
Заголовок : RIP | MZMA
Библиотека кодирования : x264 core 152 r2851kMod ba24899
Настройки программы : cabac=1 / ref=9 / deblock=1:-2:-2 / analyse=0x3:0x113 / me=umh / subme=11 / psy=1 / fade_compensate=0.00 / psy_rd=1.00:0.00 / mixed_ref=1 / me_range=48 / chroma_me=1 / trellis=2 / 8x8dct=1 / cqm=0 / deadzone=21,11 / fast_pskip=0 / chroma_qp_offset=-2 / threads=6 / lookahead_threads=1 / sliced_threads=0 / nr=0 / decimate=0 / interlaced=0 / bluray_compat=0 / constrained_intra=0 / bframes=16 / b_pyramid=2 / b_adapt=2 / b_bias=0 / direct=3 / weightb=1 / open_gop=0 / weightp=2 / keyint=240 / keyint_min=23 / scenecut=40 / intra_refresh=0 / rc_lookahead=40 / rc=2pass / mbtree=0 / bitrate=4898 / ratetol=1.0 / qcomp=0.60 / qpmin=0 / qpmax=69 / qpstep=4 / cplxblur=20.0 / qblur=0.5 / vbv_maxrate=50000 / vbv_bufsize=62500 / nal_hrd=none / filler=0 / ip_ratio=1.40 / pb_ratio=1.30 / aq=3:0.70
Язык : English
По умолчанию : Да
Принудительно : Нет
Цветовой диапазон : Limited
Основные цвета : BT.709
Характеристики трансфера : BT.709
Коэффициенты матрицы : BT.709

Аудио #1
Идентификатор : 2
Формат : AC-3
Формат/Информация : Audio Coding 3
Идентификатор кодека : A_AC3
Продолжительность : 1 ч. 40 м.
Вид битрейта : Постоянный
Битрейт : 192 Кбит/сек
Каналы : 2 канала
Расположение каналов : Front: L R
Частота : 48,0 КГц
Частота кадров : 31,250 кадров/сек (1536 SPF)
Битовая глубина : 16 бит
Метод сжатия : С потерями
Размер потока : 138 Мбайт (3%)
Заголовок : MVO
Язык : Russian
По умолчанию : Да
Принудительно : Нет

Аудио #2
Идентификатор : 3
Формат : AC-3
Формат/Информация : Audio Coding 3
Идентификатор кодека : A_AC3
Продолжительность : 1 ч. 40 м.
Вид битрейта : Постоянный
Битрейт : 192 Кбит/сек
Каналы : 2 канала
Расположение каналов : Front: L R
Частота : 48,0 КГц
Частота кадров : 31,250 кадров/сек (1536 SPF)
Битовая глубина : 16 бит
Метод сжатия : С потерями
Размер потока : 138 Мбайт (3%)
Заголовок : AVO | Е. Гранкин
Язык : Russian
По умолчанию : Нет
Принудительно : Нет

Аудио #3
Идентификатор : 4
Формат : AC-3
Формат/Информация : Audio Coding 3
Идентификатор кодека : A_AC3
Продолжительность : 1 ч. 40 м.
Вид битрейта : Постоянный
Битрейт : 384 Кбит/сек
Каналы : 2 канала
Расположение каналов : Front: L R
Частота : 48,0 КГц
Частота кадров : 31,250 кадров/сек (1536 SPF)
Битовая глубина : 16 бит
Метод сжатия : С потерями
Размер потока : 276 Мбайт (7%)
Заголовок : Original
Язык : English
По умолчанию : Нет
Принудительно : Нет

Меню
00:00:00.000 : en:
00:00:35.333 : en:
00:00:57.333 : en:
00:11:35.041 : en:
00:20:52.208 : en:
00:28:18.958 : en:
00:38:01.500 : en:
00:45:32.625 : en:
00:53:02.000 : en:
01:02:04.500 : en:
01:10:16.791 : en:
01:20:39.000 : en:
01:31:59.000 : en:
01:40:17.250 : en:
Скачать сэмпл
Bog.lyudoedov.1978.BDRip.720p.KORSAR_sample.mkv
Релиз от:
 

Вложения

  • 20,8 KB Просмотры: 1
    Личеров 0
    Сидеров 0
    Файлов 1
    Объем 4 GB

Привет!

Мы группа людей которые решили помочь другим в решении их проблем, а так же пользователям с поиском самых свежих и качественных инфопродуктов. За 4 с небольшим месяца мы создали этот форум на который заходят ежедневно тысячи человек и посещаемость постоянно растёт. Мы создали панель лицензирования для защиты PHP скриптов от воровства и SEO панель для мониторинга наших сайтов и выбора верной стратегии их развития. Мы надеемся что то что мы создали пригодится Вам и возможно Вы поможете нам развиваться и совершенствоваться вместе с Вами.

Статистика форума

Темы
410.863
Сообщения
469.403
Пользователи
87.828
Новый пользователь
LolPirod

Приложения форума для iOS и Android


У ркн там нет власти ;)
Приватные разговоры
Помощь Пользователи
    Вы не присоединились ни к одной комнате.