За последнюю неделю опубликовано 28 новых материалов.
Инструкция новичку Путеводитель по форуму Прокси для Telegram Показать подсказки , это бомба!

Скачать Бог людоедов / La montagna del dio cannibale (1978) BDRemux 1080p | P, A бесплатно через торрент

  • Поучаствуй (в качестве покупателя) в любых пяти совместных покупках (кроме завершённых и "Моментальных") и получи группу "Новичок" навсегда -> ссылка на раздел
  • Получай до 480 рублей за каждого приглашенного пользователя!
    представляем Вам очередное расширение партнерской программы, подробности описаны тут -> ссылка
  • 90% материалов доступно к скачиванию после простой регистрации!
    Если же ты хочешь скачивать материалы без требования оставлять отзывы то получи группу "Новичок", 10 способов повышения описаны тут -> ссылка
  • К сожалению количество битых ссылок растет и мы уже не можем их оперативно восстанавливать поэтому просим помощи у каждого нашего пользователя.
    С сегодняшнего дня, за каждую восстановленную ссылку мы заплатим Вам.
    Подробнее тут -> ссылка
  • Перенесем твои заслуги с другого ресурса!
    Мы понимаем как сложно прокачивать аккаунты на форумах, вроде раскачал аккаунт, а тут появляется ресурс в 100 раз круче но тоже с системой прокачки и снова качать аккаунт...
    Предлагаем вам перенести Ваши заслуги на другом подобном ресурсе к нам.
    Подробности описаны тут -> ссылка
  • Вы можете получать по 2.5% с каждой покупки и продажи на маркете! Подробности в теме Партнёрская программа
Если Вы не хотите скачивать, Вы всегда можетепосмотретьонлайн, просто нажмите кнопку ниже :

Открыть плеер

Torrent_Bot

Торрент-Бот
Бот форума
4 Окт 2016
93
156
20


Информация о фильме
Название: Бог людоедов
Оригинальное название: La montagna del dio cannibale
Год выхода: 1978
Жанр: Ужасы, триллер, приключения
Режиссер: Серджио Мартино
В ролях: Урсула Андресс, Стейси Кич, Клаудио Кассинелли, Антонио Марсина, Франко Фантазия, Карло Лонги, Луиджина Рокки, Ланфранко Спинола, Акушула Селайя, Дадли Ванагуру

О фильме:
В Новую Гвинею прилетает Сьюзан Стивенсон, муж которой отправился в опасную экспедицию в джунгли этой страны, и от которого уже несколько месяцев не поступало никаких вестей. В аэропорту ее встретил брат, с которым она отправилась в британское консульство. Там, однако, Сьюзан ничем помочь не смогли, и отважная женщина решила самостоятельно отправиться в поисковую экспедицию. Компанию ей составил ее брат и доктор Эдвард Фостер, предположивший, что муж отправился на остров, где обитало дикое племя каннибалов…




Страна: Италия
Продолжительность: 01:40:41
Перевод: Профессиональный многоголосый, авторский

MediaInfo
Общее
Уникальный идентификатор : 200421550415132145348770053568572683211 (0x96C7C95AFB0086AC914B3F69455BF3CB)
Полное имя : D:The.Mountain.of.the.Cannibal.God.1978.BDRemux.mkv
Формат : Matroska
Версия формата : Version 4 / Version 2
Размер файла : 22,3 Гбайт
Продолжительность : 1 ч. 40 м.
Режим общего битрейта : Переменный
Общий поток : 31,8 Мбит/сек
Название фильма : The Mountain of the Cannibal God.1978.BDRemux _Atomsk_
Дата кодирования : UTC 2018-09-24 06:45:06
Программа кодирования : mkvmerge v7.9.0 ('Birds') 64bit
Библиотека кодирования : libebml v1.3.1 + libmatroska v1.4.2

Видео
Идентификатор : 1
Формат : AVC
Формат/Информация : Advanced Video Codec
Профиль формата : [email protected]
Параметр CABAC формата : Да
Параметр RefFrames формата : 3 кадра
Параметр GOP формата : M=3, N=12
Идентификатор кодека : V_MPEG4/ISO/AVC
Продолжительность : 1 ч. 40 м.
Вид битрейта : Переменный
Битрейт : 30,0 Мбит/сек
Максимальный битрейт : 35,0 Мбит/сек
Ширина : 1920 пикселей
Высота : 1080 пикселей
Соотношение сторон : 16:9
Режим частоты кадров : Постоянный
Частота кадров : 24,000 кадра/сек
Стандарт вещания : NTSC
Цветовое пространство : YUV
Субдискретизация насыщенности : 4:2:0
Битовая глубина : 8 бит
Тип развёртки : Прогрессивная
Бит/(Пиксели*Кадры) : 0.603
Размер потока : 21,1 Гбайт (94%)
Заголовок : The Mountain of the Cannibal God.1978.BDRemux
Язык : English
Default : Да
Forced : Нет
Цветовой диапазон : Limited
Основные цвета : BT.709
Характеристики трансфера : BT.709
Коэффициенты матрицы : BT.709

Аудио #1
Идентификатор : 2
Формат : AC-3
Формат/Информация : Audio Coding 3
Параметр Endianness формата : Big
Идентификатор кодека : A_AC3
Продолжительность : 1 ч. 40 м.
Вид битрейта : Постоянный
Битрейт : 192 Кбит/сек
Каналы : 2 канала
Расположение каналов : Front: L R
Частота : 48,0 КГц
Частота кадров : 31,250 кадров/сек (1536 SPF)
Битовая глубина : 16 бит
Метод сжатия : С потерями
Размер потока : 138 Мбайт (1%)
Заголовок : AC3 2.0 @ 192 kbps - AVO, Евгений Гранкин
Язык : Russian
ServiceKind/String : Complete Main
Default : Да
Forced : Нет

Аудио #2
Идентификатор : 3
Формат : AC-3
Формат/Информация : Audio Coding 3
Параметр Endianness формата : Big
Идентификатор кодека : A_AC3
Продолжительность : 1 ч. 40 м.
Вид битрейта : Постоянный
Битрейт : 192 Кбит/сек
Каналы : 2 канала
Расположение каналов : Front: L R
Частота : 48,0 КГц
Частота кадров : 31,250 кадров/сек (1536 SPF)
Битовая глубина : 16 бит
Метод сжатия : С потерями
Размер потока : 138 Мбайт (1%)
Заголовок : AC3 2.0 @ 192 kbps - MVO
Язык : Russian
ServiceKind/String : Complete Main
Default : Нет
Forced : Нет

Аудио #3
Идентификатор : 4
Формат : FLAC
Формат/Информация : Free Lossless Audio Codec
Идентификатор кодека : A_FLAC
Продолжительность : 1 ч. 40 м.
Вид битрейта : Переменный
Битрейт : 1391 Кбит/сек
Каналы : 2 канала
Расположение каналов : Front: L R
Частота : 48,0 КГц
Частота кадров : 41,667 кадра/сек (1152 SPF)
Битовая глубина : 24 бит
Размер потока : 1000 Мбайт (4%)
Заголовок : 1536 kbps - Original
Библиотека кодирования : libFLAC 1.3.1 (UTC 2014-11-25)
Язык : English
Default : Нет
Forced : Нет

Текст
Идентификатор : 5
Формат : UTF-8
Идентификатор кодека : S_TEXT/UTF8
Идентификатор кодека/Информация : UTF-8 Plain Text
Продолжительность : 1 ч. 39 м.
Битрейт : 27 бит/сек
ElementCount : 610
Размер потока : 20,2 Кбайт (0%)
Язык : English
Default : Нет
Forced : Нет

Меню
00:00:00.000 : en:
00:00:35.333 : en:
00:00:57.333 : en:
00:11:35.041 : en:
00:20:52.208 : en:
00:28:18.958 : en:
00:38:01.500 : en:
00:45:32.625 : en:
00:53:02.000 : en:
01:02:04.500 : en:
01:10:16.791 : en:
01:20:39.000 : en:
01:31:59.000 : en:
01:40:17.250 : en:
Файл
Качество: BDRemux 1080p
Видео: 1920x1080 (16:9), 24.000 fps, 31.9 Mbps, AVC
Аудио: 1 AC3, 2 ch, 192 kbps - Русский одноголосый (Евгений Гранкин)
Аудио: 2 AC3, 2 ch, 192 kbps - Русский многоголосый
Аудио 3: English, 48.0 KHz, FLAC, 2 ch, 24 bit, 1391 kbps - Original
Субтитры: английские


Скриншоты

 

Вложения

  • 112,5 KB Просмотры: 1
    Личеров 0
    Сидеров 0
    Файлов 1
    Объем 22,3 GB

Привет!

Мы группа людей которые решили помочь другим в решении их проблем, а так же пользователям с поиском самых свежих и качественных инфопродуктов. За 4 с небольшим месяца мы создали этот форум на который заходят ежедневно тысячи человек и посещаемость постоянно растёт. Мы создали панель лицензирования для защиты PHP скриптов от воровства и SEO панель для мониторинга наших сайтов и выбора верной стратегии их развития. Мы надеемся что то что мы создали пригодится Вам и возможно Вы поможете нам развиваться и совершенствоваться вместе с Вами.

Статистика форума

Темы
406.553
Сообщения
464.733
Пользователи
83.474
Новый пользователь
pdabee

Приложения форума для iOS и Android


У ркн там нет власти ;)
Приватные разговоры
Помощь Пользователи
    Вы не присоединились ни к одной комнате.