За последнюю неделю опубликовано 18 новых материалов.
Инструкция новичку Путеводитель по форуму Прокси для Telegram Показать подсказки , это бомба!

Скачать Бобака Саскервилей (1998) VHSRip бесплатно через торрент

  • Поучаствуй (в качестве покупателя) в любых пяти совместных покупках (кроме завершённых и "Моментальных") и получи группу "Новичок" навсегда -> ссылка на раздел
  • Получай до 480 рублей за каждого приглашенного пользователя!
    представляем Вам очередное расширение партнерской программы, подробности описаны тут -> ссылка
  • 90% материалов доступно к скачиванию после простой регистрации!
    Если же ты хочешь скачивать материалы без требования оставлять отзывы то получи группу "Новичок", 10 способов повышения описаны тут -> ссылка
  • К сожалению количество битых ссылок растет и мы уже не можем их оперативно восстанавливать поэтому просим помощи у каждого нашего пользователя.
    С сегодняшнего дня, за каждую восстановленную ссылку мы заплатим Вам.
    Подробнее тут -> ссылка
  • Перенесем твои заслуги с другого ресурса!
    Мы понимаем как сложно прокачивать аккаунты на форумах, вроде раскачал аккаунт, а тут появляется ресурс в 100 раз круче но тоже с системой прокачки и снова качать аккаунт...
    Предлагаем вам перенести Ваши заслуги на другом подобном ресурсе к нам.
    Подробности описаны тут -> ссылка
  • Вы можете получать по 2.5% с каждой покупки и продажи на маркете! Подробности в теме Партнёрская программа
Если Вы не хотите скачивать, Вы всегда можетепосмотретьонлайн, просто нажмите кнопку ниже :

Открыть плеер

Torrent_Bot

Торрент-Бот
Бот форума
4 Окт 2016
122
125
20
Информация о фильме
Название: Бобака Саскервилей
Год выхода: 1998
Жанр: Пародия, комедия, детектив
В ролях: Алексей Лебединский, Юрий Гальцев, Дмитрий Нагиев, Анвар Либабов, Ирина Ковалева

О фильме:
Действо бессмертного творения перенесено в наши незамысловатые дни. История повторяется. Знаменитый сыщик Херлок Шолмс и его помощник доктор Вайсман организуют грандиозную охоту на бешеную Бобаку. Но эта безумная, жестокая и героическая схватка далеко не для всех заканчивается удачно…

2d2ba2b89484703fcaba5e7e935fcc1c.gif
Страна: Россия
Продолжительность: 1:05:00
Перевод: Не требуется

Файл
Кодек: XviD / MP3
Качество: VHSRip
Видео: MPEG4, XviD, 640x480 (4:3), 25.000 fps, 2 176 Kbps (0.283 bit/pixel)
Звук: MP3, 44.1 KHz, 2 ch, 192 Kbps, CBR

Скриншоты
6426346b9a7bb07639217fff509ddf4b.jpegb7585facefd2a88333ac62152fb8bafe.jpeg3226560329171e5ab1b0b57c9e372da0.jpegbadedfdfd61cc667e57fd2e98fa2e84c.jpeg9174da81fe0703e0dac4d97421a36fc6.jpeg9bbab16c7ad62a2136c0d9e33a94bd5f.jpeg
MediaInfo
General
Complete name : Бобака Саскервилей (1998).avi
Format : AVI
Format/Info : Audio Video Interleave
File size : 1.03 GiB
Duration : 1h 2mn
Overall bit rate : 2 378 Kbps
Writing application : VirtualDubMod 1.5.10.3 | www.virtualdub-fr.org || (build 2550/release)
Writing library : VirtualDub build 35491/release

Video
ID : 0
Format : MPEG-4 Visual
Format profile : Advanced [email protected]
Format settings, BVOP : 2
Format settings, QPel : Yes
Format settings, GMC : No warppoints
Format settings, Matrix : Default (MPEG)
Muxing mode : Packed bitstream
Codec ID : XVID
Codec ID/Hint : XviD
Duration : 1h 2mn
Bit rate : 2 176 Kbps
Width : 640 pixels
Height : 480 pixels
Display aspect ratio : 4:3
Frame rate : 25.000 fps
Color space : YUV
Chroma subsampling : 4:2:0
Bit depth : 8 bits
Scan type : Progressive
Compression mode : Lossy
Bits/(Pixel*Frame) : 0.283
Stream size : 967 MiB (92%)
Writing library : XviD 64

Audio
ID : 1
Format : MPEG Audio
Format version : Version 1
Format profile : Layer 3
Codec ID : 55
Codec ID/Hint : MP3
Duration : 1h 2mn
Bit rate mode : Constant
Bit rate : 192 Kbps
Channel(s) : 2 channels
Sampling rate : 44.1 KHz
Compression mode : Lossy
Delay relative to video : 24ms
Stream size : 85.3 MiB (8%)
Alignment : Split accross interleaves
Interleave, duration : 40 ms (1.00 video frame)
Interleave, preload duration : 500 ms
Writing library : LAME3.99.5
 

Вложения

  • 21,6 KB Просмотры: 0
    Личеров 0
    Сидеров 0
    Файлов 1
    Объем 1 GB

Привет!

Мы группа людей которые решили помочь другим в решении их проблем, а так же пользователям с поиском самых свежих и качественных инфопродуктов. За 4 с небольшим месяца мы создали этот форум на который заходят ежедневно тысячи человек и посещаемость постоянно растёт. Мы создали панель лицензирования для защиты PHP скриптов от воровства и SEO панель для мониторинга наших сайтов и выбора верной стратегии их развития. Мы надеемся что то что мы создали пригодится Вам и возможно Вы поможете нам развиваться и совершенствоваться вместе с Вами.

Статистика форума

Темы
385.349
Сообщения
432.027
Пользователи
66.339
Новый пользователь
zxczxc12

Приложения форума для iOS и Android


У ркн там нет власти ;)
Приватные разговоры
Помощь Пользователи
    Вы не присоединились ни к одной комнате.