За последнюю неделю опубликовано 59 новых материалов.
Инструкция новичку Путеводитель по форуму Прокси для Telegram Показать подсказки , это бомба!

Скачать Ближе, чем кажется (2015) HDTV 1080i от MediaClub бесплатно через торрент

  • Поучаствуй (в качестве покупателя) в любых пяти совместных покупках (кроме завершённых и "Моментальных") и получи группу "Новичок" навсегда -> ссылка на раздел
  • Получай до 480 рублей за каждого приглашенного пользователя!
    представляем Вам очередное расширение партнерской программы, подробности описаны тут -> ссылка
  • 90% материалов доступно к скачиванию после простой регистрации!
    Если же ты хочешь скачивать материалы без требования оставлять отзывы то получи группу "Новичок", 10 способов повышения описаны тут -> ссылка
  • К сожалению количество битых ссылок растет и мы уже не можем их оперативно восстанавливать поэтому просим помощи у каждого нашего пользователя.
    С сегодняшнего дня, за каждую восстановленную ссылку мы заплатим Вам.
    Подробнее тут -> ссылка
  • Перенесем твои заслуги с другого ресурса!
    Мы понимаем как сложно прокачивать аккаунты на форумах, вроде раскачал аккаунт, а тут появляется ресурс в 100 раз круче но тоже с системой прокачки и снова качать аккаунт...
    Предлагаем вам перенести Ваши заслуги на другом подобном ресурсе к нам.
    Подробности описаны тут -> ссылка
  • Вы можете получать по 2.5% с каждой покупки и продажи на маркете! Подробности в теме Партнёрская программа
Если Вы не хотите скачивать, Вы всегда можетепосмотретьонлайн, просто нажмите кнопку ниже :

Открыть плеер

Torrent_Bot

Торрент-Бот
Бот форума
4 Окт 2016
91
163
20
Информация о фильме
Название: Ближе, чем кажется
Год выхода: 2015
Жанр: Семейный
Режиссер: Наталия Беляускене, Герман Дюкарев, Андрей Ким, Максим Воскобоев, Алена Рубинштейн
В ролях: Тимофей Трибунцев, Даниил Изотов, Максим Сапрыкин, Руслан Щедрин, Владимир Свирский, Евгения Дмитриева, Ия Нинидзе, Елизавета Зарубина, Елена Бушуева, Наталья Рычкова, Евгений Коряковский, Виолетта Давыдовская, Наталья Дрожжина, Вероника Кротова, Митя Лабуш, Михаил Богдасаров, Руслана Рухадзе, Валентина Шанаева, Александра Велескевич, Алёна Проданова

О фильме:
Четыре независимых сюжета, которые объединяет извечная тема отцов и детей, особенно актуальная для русской литературы и отечественного кино. Каждая история рассказывает о наших современниках и затрагивает животрепещущие вопросы нравственности, непонимания, благодарности и любви.4 героя. Каждый из них встаёт перед выбором, который способен определить последующий ход его жизни. 6-летнее музыкальное дарование Коля Пыхтин, приезжает на конкурс в Москву. О чём он мечтает? В его мыслях лишь желание отыскать родного отца, а не победа. Второй юный герой — мальчик-сирота по имени Сеня. Он находит потайной ход, через который можно попасть в тихую морскую бухту, и теперь он должен решить, что лучше для него: попытаться найти общий язык с приёмными родителями или навсегда остаться в уединении. Третий герой, Георгий, не одобряет поступок родной дочери, которая сбежала из дома вместе со своим возлюбленным. Скрывая правду от окружающих, мужчина вынужден говорить всем, что девушка уехала учиться. Четвёртая история показывает то, как 8-летняя Саша постепенно сближается со своим отчимом, ведь когда маме нужна помощь ни девочка, ни «новый папа» не могут остаться в стороне.


Страна: Россия
Студия: Продюсерский центр "Молодёжные инициативы"
Продолжительность: 02:01:33
Перевод: Не требуется

Файл
Кодек: h.264
Качество: HDTV 1080i
Видео: MPEG-4 AVC, ~ 7418 Кбит/с, 1920x1080, 25.000 кадр/с
Звук: Русский (AC3, 6 ch, 448 Кбит/с)
Субтитры: Нет

Семпл

О релизе
Автор релиза - Silverok, первоисточник - Наш Киноромон HD
MI
General
ID : 1 (0x1)
Complete name : D:uTorrentBlizhe.chem.kazhitsja.2015.HDTV.1080i.MediaClub.ts
Format : MPEG-TS
File size : 7.03 GiB
Duration : 2 h 1 min
Overall bit rate mode : Variable
Overall bit rate : 8 280 kb/s
Maximum Overall bit rate : 35.5 Mb/s

Video
ID : 4113 (0x1011)
Menu ID : 1 (0x1)
Format : AVC
Format/Info : Advanced Video Codec
Format profile : [email protected]
Format settings, CABAC : Yes
Format settings, ReFrames : 4 frames
Codec ID : 27
Duration : 2 h 1 min
Bit rate mode : Variable
Bit rate : 7 418 kb/s
Maximum bit rate : 40.0 Mb/s
Width : 1 920 pixels
Height : 1 080 pixels
Display aspect ratio : 16:9
Frame rate : 25.000 FPS
Color space : YUV
Chroma subsampling : 4:2:0
Bit depth : 8 bits
Scan type : Interlaced
Scan type, store method : Separated fields
Scan order : Top Field First
Bits/(Pixel*Frame) : 0.143
Stream size : 6.30 GiB (90%)
Color range : Limited
Color primaries : BT.709
Transfer characteristics : BT.709
Matrix coefficients : BT.709

Audio
ID : 4352 (0x1100)
Menu ID : 1 (0x1)
Format : AC-3
Format/Info : Audio Coding 3
Mode extension : CM (complete main)
Format settings, Endianness : Big
Codec ID : 129
Duration : 2 h 1 min
Bit rate mode : Constant
Bit rate : 448 kb/s
Channel(s) : 6 channels
Channel positions : Front: L C R, Side: L R, LFE
Sampling rate : 44.1 kHz
Frame rate : 28.711 FPS (1536 spf)
Compression mode : Lossy
Delay relative to video : 40 ms
Stream size : 389 MiB (5%)
Language : Russian
Скриншоты
34c45d4474b107164151764e0fc0de25.jpg7a06b58a9e0c8dd9b3946050665dd1a2.jpg827ab6a76fb7c32410250b04eba1d9ca.jpg95efb31ca91148833edc7c24fd8e4818.jpg9f5e11c4c31cfbf0897cd4af0e32423e.jpg7356d84f12af272c9166f6fc8b33abba.jpge1346cd1b355999cabb17fba0569110a.jpgcffaf254b5620c05a43c142475422563.jpg

Релиз от: | Silverok
 

Вложения

Привет!

Мы группа людей которые решили помочь другим в решении их проблем, а так же пользователям с поиском самых свежих и качественных инфопродуктов. За 4 с небольшим месяца мы создали этот форум на который заходят ежедневно тысячи человек и посещаемость постоянно растёт. Мы создали панель лицензирования для защиты PHP скриптов от воровства и SEO панель для мониторинга наших сайтов и выбора верной стратегии их развития. Мы надеемся что то что мы создали пригодится Вам и возможно Вы поможете нам развиваться и совершенствоваться вместе с Вами.

Статистика форума

Темы
410.544
Сообщения
469.084
Пользователи
86.041
Новый пользователь
Quent

Приложения форума для iOS и Android


У ркн там нет власти ;)
Приватные разговоры
Помощь Пользователи
    Вы не присоединились ни к одной комнате.