За последнюю неделю опубликовано 30 новых материалов.
Инструкция новичку Путеводитель по форуму Прокси для Telegram Показать подсказки , это бомба!

Скачать Blitzen Trapper - Furr [24-bit Hi-Res] (10th Anniversary Deluxe Edition) 2018 FLAC бесплатно через торрент

  • Поучаствуй (в качестве покупателя) в любых пяти совместных покупках (кроме завершённых и "Моментальных") и получи группу "Новичок" навсегда -> ссылка на раздел
  • Получай до 480 рублей за каждого приглашенного пользователя!
    представляем Вам очередное расширение партнерской программы, подробности описаны тут -> ссылка
  • 90% материалов доступно к скачиванию после простой регистрации!
    Если же ты хочешь скачивать материалы без требования оставлять отзывы то получи группу "Новичок", 10 способов повышения описаны тут -> ссылка
  • К сожалению количество битых ссылок растет и мы уже не можем их оперативно восстанавливать поэтому просим помощи у каждого нашего пользователя.
    С сегодняшнего дня, за каждую восстановленную ссылку мы заплатим Вам.
    Подробнее тут -> ссылка
  • Перенесем твои заслуги с другого ресурса!
    Мы понимаем как сложно прокачивать аккаунты на форумах, вроде раскачал аккаунт, а тут появляется ресурс в 100 раз круче но тоже с системой прокачки и снова качать аккаунт...
    Предлагаем вам перенести Ваши заслуги на другом подобном ресурсе к нам.
    Подробности описаны тут -> ссылка
  • Вы можете получать по 2.5% с каждой покупки и продажи на маркете! Подробности в теме Партнёрская программа

Torrent_Bot

Торрент-Бот
Бот форума
4 Окт 2016
93
155
20
Исполнитель: Blitzen Trapper
Название: Furr (10th Anniversary Deluxe Edition)
Год: 2018
Жанр: Rock, Folk Rock
Продолжительность: 01:13:20
Тип рипа: tracks
Формат/Кодек: FLAC
Битрейт аудио: Lossless

ТрекЛист
01 – Sleepytime in the Western World (00:03:30)
02 – Gold For Bread (00:02:46)
03 – Furr (00:04:07)
04 – God & Suicide (00:02:21)
05 – Fire & Fast Bullets (00:02:51)
06 – Saturday Nite (00:02:07)
07 – Black River Killer (Album) (00:03:28)
08 – Not Your Lover (00:02:50)
09 – Love U (00:03:01)
10 – War On Machines (00:03:19)
11 – Stolen Shoes & a Rifle (00:02:46)
12 – EchoAlways OnEZ Con (00:03:28)
13 – Lady On the Water (00:02:28)
14 – War Is Placebo (00:02:17)
15 – Simple Tree (00:02:28)
16 – Booksmart Baby (00:01:58)
17 – Heroes of Doubt (00:03:14)
18 – Maybe Baby (00:01:55)
19 – Ballad of Bird Love (00:03:30)
20 – Hard Heart (00:02:32)
21 – Other People’s Money (00:03:35)
22 – On My Way to the Bay (00:03:13)
23 – Rent-a-Cop (00:02:06)
24 – God & Suicide (Live at KCRW) (00:02:57)
25 – Furr (Live at KCRW) (00:04:21)

MediaInfo
Общее
Полное имя : C:DownloadsFinishBlitzen Trapper - Furr (10th Anniversary Deluxe Edition) 2018 FLAC [24-44,1]1 - Sleepy Time In The Western World.flac
Формат : FLAC
Формат/Информация : Free Lossless Audio Codec
Размер файла : 42,7 Мбайт
Продолжительность : 3 м. 29 с.
Режим общего битрейта : Переменный
Общий поток : 1709 Кбит/сек
Альбом : Furr (10th Anniversary Deluxe Edition)
Альбом/Исполнитель : Blitzen Trapper / Blitzen Trapper
Трек : Sleepy Time in the Western World
Трек/Положение : 01
Трек/Всего : 25
Исполнитель : Blitzen Trapper
Кодирование произвёл : ЯОR
Жанр : Folk Rock
Дата записи : 2018
Обложка : Yes
Тип обложки : Cover (front)
MIME-тип обложки : image/jpeg
Примечание : ~ N ~

Аудио
Формат : FLAC
Формат/Информация : Free Lossless Audio Codec
Продолжительность : 3 м. 29 с.
Вид битрейта : Переменный
Битрейт : 1705 Кбит/сек
Каналы : 2 канала
Расположение каналов : Front: L R
Частота : 44,1 КГц
Битовая глубина : 24 бит
Размер потока : 42,6 Мбайт (100%)
Библиотека кодирования : libFLAC 1.3.1 (UTC 2014-11-25)

Общее
Полное имя : C:DownloadsFinishBlitzen Trapper - Furr (10th Anniversary Deluxe Edition) 2018 FLAC [24-44,1]2 - Gold For Bread.flac
Формат : FLAC
Формат/Информация : Free Lossless Audio Codec
Размер файла : 32,1 Мбайт
Продолжительность : 2 м. 46 с.
Режим общего битрейта : Переменный
Общий поток : 1614 Кбит/сек
Альбом : Furr (10th Anniversary Deluxe Edition)
Альбом/Исполнитель : Blitzen Trapper / Blitzen Trapper
Трек : Gold for Bread
Трек/Положение : 02
Трек/Всего : 25
Исполнитель : Blitzen Trapper
Кодирование произвёл : ЯОR
Жанр : Folk Rock
Дата записи : 2018
Обложка : Yes
Тип обложки : Cover (front)
MIME-тип обложки : image/jpeg
Примечание : ~ N ~

Аудио
Формат : FLAC
Формат/Информация : Free Lossless Audio Codec
Продолжительность : 2 м. 46 с.
Вид битрейта : Переменный
Битрейт : 1608 Кбит/сек
Каналы : 2 канала
Расположение каналов : Front: L R
Частота : 44,1 КГц
Битовая глубина : 24 бит
Размер потока : 32,0 Мбайт (100%)
Библиотека кодирования : libFLAC 1.3.1 (UTC 2014-11-25)

Общее
Полное имя : C:DownloadsFinishBlitzen Trapper - Furr (10th Anniversary Deluxe Edition) 2018 FLAC [24-44,1]3 - Furr.flac
Формат : FLAC
Формат/Информация : Free Lossless Audio Codec
Размер файла : 47,1 Мбайт
Продолжительность : 4 м. 7 с.
Режим общего битрейта : Переменный
Общий поток : 1597 Кбит/сек
Альбом : Furr (10th Anniversary Deluxe Edition)
Альбом/Исполнитель : Blitzen Trapper / Blitzen Trapper
Трек : Furr
Трек/Положение : 03
Трек/Всего : 25
Исполнитель : Blitzen Trapper
Кодирование произвёл : ЯОR
Жанр : Folk Rock
Дата записи : 2018
Обложка : Yes
Тип обложки : Cover (front)
MIME-тип обложки : image/jpeg
Примечание : ~ N ~

Аудио
Формат : FLAC
Формат/Информация : Free Lossless Audio Codec
Продолжительность : 4 м. 7 с.
Вид битрейта : Переменный
Битрейт : 1593 Кбит/сек
Каналы : 2 канала
Расположение каналов : Front: L R
Частота : 44,1 КГц
Битовая глубина : 24 бит
Размер потока : 47,0 Мбайт (100%)
Библиотека кодирования : libFLAC 1.3.1 (UTC 2014-11-25)

Общее
Полное имя : C:DownloadsFinishBlitzen Trapper - Furr (10th Anniversary Deluxe Edition) 2018 FLAC [24-44,1]4 - God & Suicide.flac
Формат : FLAC
Формат/Информация : Free Lossless Audio Codec
Размер файла : 27,5 Мбайт
Продолжительность : 2 м. 21 с.
Режим общего битрейта : Переменный
Общий поток : 1638 Кбит/сек
Альбом : Furr (10th Anniversary Deluxe Edition)
Альбом/Исполнитель : Blitzen Trapper / Blitzen Trapper
Трек : God & Suicide
Трек/Положение : 04
Трек/Всего : 25
Исполнитель : Blitzen Trapper
Кодирование произвёл : ЯОR
Жанр : Folk Rock
Дата записи : 2018
Обложка : Yes
Тип обложки : Cover (front)
MIME-тип обложки : image/jpeg
Примечание : ~ N ~

Аудио
Формат : FLAC
Формат/Информация : Free Lossless Audio Codec
Продолжительность : 2 м. 21 с.
Вид битрейта : Переменный
Битрейт : 1631 Кбит/сек
Каналы : 2 канала
Расположение каналов : Front: L R
Частота : 44,1 КГц
Битовая глубина : 24 бит
Размер потока : 27,4 Мбайт (100%)
Библиотека кодирования : libFLAC 1.3.1 (UTC 2014-11-25)

Общее
Полное имя : C:DownloadsFinishBlitzen Trapper - Furr (10th Anniversary Deluxe Edition) 2018 FLAC [24-44,1]5 - Fire & Fast Bullets.flac
Формат : FLAC
Формат/Информация : Free Lossless Audio Codec
Размер файла : 34,3 Мбайт
Продолжительность : 2 м. 51 с.
Режим общего битрейта : Переменный
Общий поток : 1680 Кбит/сек
Альбом : Furr (10th Anniversary Deluxe Edition)
Альбом/Исполнитель : Blitzen Trapper / Blitzen Trapper
Трек : Fire & Fast Bullets
Трек/Положение : 05
Трек/Всего : 25
Исполнитель : Blitzen Trapper
Кодирование произвёл : ЯОR
Жанр : Folk Rock
Дата записи : 2018
Обложка : Yes
Тип обложки : Cover (front)
MIME-тип обложки : image/jpeg
Примечание : ~ N ~

Аудио
Формат : FLAC
Формат/Информация : Free Lossless Audio Codec
Продолжительность : 2 м. 51 с.
Вид битрейта : Переменный
Битрейт : 1675 Кбит/сек
Каналы : 2 канала
Расположение каналов : Front: L R
Частота : 44,1 КГц
Битовая глубина : 24 бит
Размер потока : 34,2 Мбайт (100%)
Библиотека кодирования : libFLAC 1.3.1 (UTC 2014-11-25)

Общее
Полное имя : C:DownloadsFinishBlitzen Trapper - Furr (10th Anniversary Deluxe Edition) 2018 FLAC [24-44,1]6 - Saturday Nite.flac
Формат : FLAC
Формат/Информация : Free Lossless Audio Codec
Размер файла : 24,7 Мбайт
Продолжительность : 2 м. 7 с.
Режим общего битрейта : Переменный
Общий поток : 1617 Кбит/сек
Альбом : Furr (10th Anniversary Deluxe Edition)
Альбом/Исполнитель : Blitzen Trapper / Blitzen Trapper
Трек : Saturday Nite
Трек/Положение : 06
Трек/Всего : 25
Исполнитель : Blitzen Trapper
Кодирование произвёл : ЯОR
Жанр : Folk Rock
Дата записи : 2018
Обложка : Yes
Тип обложки : Cover (front)
MIME-тип обложки : image/jpeg
Примечание : ~ N ~

Аудио
Формат : FLAC
Формат/Информация : Free Lossless Audio Codec
Продолжительность : 2 м. 7 с.
Вид битрейта : Переменный
Битрейт : 1610 Кбит/сек
Каналы : 2 канала
Расположение каналов : Front: L R
Частота : 44,1 КГц
Битовая глубина : 24 бит
Размер потока : 24,5 Мбайт (100%)
Библиотека кодирования : libFLAC 1.3.1 (UTC 2014-11-25)

Общее
Полное имя : C:DownloadsFinishBlitzen Trapper - Furr (10th Anniversary Deluxe Edition) 2018 FLAC [24-44,1]7 - Black River Killer.flac
Формат : FLAC
Формат/Информация : Free Lossless Audio Codec
Размер файла : 38,0 Мбайт
Продолжительность : 3 м. 28 с.
Режим общего битрейта : Переменный
Общий поток : 1530 Кбит/сек
Альбом : Furr (10th Anniversary Deluxe Edition)
Альбом/Исполнитель : Blitzen Trapper / Blitzen Trapper
Трек : Black River Killer
Трек/Положение : 07
Трек/Всего : 25
Исполнитель : Blitzen Trapper
Кодирование произвёл : ЯОR
Жанр : Folk Rock
Дата записи : 2018
Обложка : Yes
Тип обложки : Cover (front)
MIME-тип обложки : image/jpeg
Примечание : ~ N ~

Аудио
Формат : FLAC
Формат/Информация : Free Lossless Audio Codec
Продолжительность : 3 м. 28 с.
Вид битрейта : Переменный
Битрейт : 1525 Кбит/сек
Каналы : 2 канала
Расположение каналов : Front: L R
Частота : 44,1 КГц
Битовая глубина : 24 бит
Размер потока : 37,8 Мбайт (100%)
Библиотека кодирования : libFLAC 1.3.1 (UTC 2014-11-25)

Общее
Полное имя : C:DownloadsFinishBlitzen Trapper - Furr (10th Anniversary Deluxe Edition) 2018 FLAC [24-44,1]8 - Not Your Lover.flac
Формат : FLAC
Формат/Информация : Free Lossless Audio Codec
Размер файла : 29,5 Мбайт
Продолжительность : 2 м. 50 с.
Режим общего битрейта : Переменный
Общий поток : 1448 Кбит/сек
Альбом : Furr (10th Anniversary Deluxe Edition)
Альбом/Исполнитель : Blitzen Trapper / Blitzen Trapper
Трек : Not Your Lover
Трек/Положение : 08
Трек/Всего : 25
Исполнитель : Blitzen Trapper
Кодирование произвёл : ЯОR
Жанр : Folk Rock
Дата записи : 2018
Обложка : Yes
Тип обложки : Cover (front)
MIME-тип обложки : image/jpeg
Примечание : ~ N ~

Аудио
Формат : FLAC
Формат/Информация : Free Lossless Audio Codec
Продолжительность : 2 м. 50 с.
Вид битрейта : Переменный
Битрейт : 1443 Кбит/сек
Каналы : 2 канала
Расположение каналов : Front: L R
Частота : 44,1 КГц
Битовая глубина : 24 бит
Размер потока : 29,4 Мбайт (100%)
Библиотека кодирования : libFLAC 1.3.1 (UTC 2014-11-25)

Общее
Полное имя : C:DownloadsFinishBlitzen Trapper - Furr (10th Anniversary Deluxe Edition) 2018 FLAC [24-44,1]9 - Love U.flac
Формат : FLAC
Формат/Информация : Free Lossless Audio Codec
Размер файла : 35,3 Мбайт
Продолжительность : 3 м. 1 с.
Режим общего битрейта : Переменный
Общий поток : 1631 Кбит/сек
Альбом : Furr (10th Anniversary Deluxe Edition)
Альбом/Исполнитель : Blitzen Trapper / Blitzen Trapper
Трек : Love U
Трек/Положение : 09
Трек/Всего : 25
Исполнитель : Blitzen Trapper
Кодирование произвёл : ЯОR
Жанр : Folk Rock
Дата записи : 2018
Обложка : Yes
Тип обложки : Cover (front)
MIME-тип обложки : image/jpeg
Примечание : ~ N ~

Аудио
Формат : FLAC
Формат/Информация : Free Lossless Audio Codec
Продолжительность : 3 м. 1 с.
Вид битрейта : Переменный
Битрейт : 1625 Кбит/сек
Каналы : 2 канала
Расположение каналов : Front: L R
Частота : 44,1 КГц
Битовая глубина : 24 бит
Размер потока : 35,2 Мбайт (100%)
Библиотека кодирования : libFLAC 1.3.1 (UTC 2014-11-25)

Общее
Полное имя : C:DownloadsFinishBlitzen Trapper - Furr (10th Anniversary Deluxe Edition) 2018 FLAC [24-44,1]10 - War On Machines.flac
Формат : FLAC
Формат/Информация : Free Lossless Audio Codec
Размер файла : 39,6 Мбайт
Продолжительность : 3 м. 19 с.
Режим общего битрейта : Переменный
Общий поток : 1662 Кбит/сек
Альбом : Furr (10th Anniversary Deluxe Edition)
Альбом/Исполнитель : Blitzen Trapper / Blitzen Trapper
Трек : War on Machines
Трек/Положение : 10
Трек/Всего : 25
Исполнитель : Blitzen Trapper
Кодирование произвёл : ЯОR
Жанр : Folk Rock
Дата записи : 2018
Обложка : Yes
Тип обложки : Cover (front)
MIME-тип обложки : image/jpeg
Примечание : ~ N ~

Аудио
Формат : FLAC
Формат/Информация : Free Lossless Audio Codec
Продолжительность : 3 м. 19 с.
Вид битрейта : Переменный
Битрейт : 1657 Кбит/сек
Каналы : 2 канала
Расположение каналов : Front: L R
Частота : 44,1 КГц
Битовая глубина : 24 бит
Размер потока : 39,5 Мбайт (100%)
Библиотека кодирования : libFLAC 1.3.1 (UTC 2014-11-25)

Общее
Полное имя : C:DownloadsFinishBlitzen Trapper - Furr (10th Anniversary Deluxe Edition) 2018 FLAC [24-44,1]11 - Stolen Shoes & A Rifle.flac
Формат : FLAC
Формат/Информация : Free Lossless Audio Codec
Размер файла : 30,6 Мбайт
Продолжительность : 2 м. 46 с.
Режим общего битрейта : Переменный
Общий поток : 1542 Кбит/сек
Альбом : Furr (10th Anniversary Deluxe Edition)
Альбом/Исполнитель : Blitzen Trapper / Blitzen Trapper
Трек : Stolen Shoes & a Rifle
Трек/Положение : 11
Трек/Всего : 25
Исполнитель : Blitzen Trapper
Кодирование произвёл : ЯОR
Жанр : Folk Rock
Дата записи : 2018
Обложка : Yes
Тип обложки : Cover (front)
MIME-тип обложки : image/jpeg
Примечание : ~ N ~

Аудио
Формат : FLAC
Формат/Информация : Free Lossless Audio Codec
Продолжительность : 2 м. 46 с.
Вид битрейта : Переменный
Битрейт : 1536 Кбит/сек
Каналы : 2 канала
Расположение каналов : Front: L R
Частота : 44,1 КГц
Битовая глубина : 24 бит
Размер потока : 30,5 Мбайт (100%)
Библиотека кодирования : libFLAC 1.3.1 (UTC 2014-11-25)

Общее
Полное имя : C:DownloadsFinishBlitzen Trapper - Furr (10th Anniversary Deluxe Edition) 2018 FLAC [24-44,1]12 - Echo Always On Easy Con.flac
Формат : FLAC
Формат/Информация : Free Lossless Audio Codec
Размер файла : 35,4 Мбайт
Продолжительность : 3 м. 28 с.
Режим общего битрейта : Переменный
Общий поток : 1429 Кбит/сек
Альбом : Furr (10th Anniversary Deluxe Edition)
Альбом/Исполнитель : Blitzen Trapper / Blitzen Trapper
Трек : Echo Always On Easy Con
Трек/Положение : 12
Трек/Всего : 25
Исполнитель : Blitzen Trapper
Кодирование произвёл : ЯОR
Жанр : Folk Rock
Дата записи : 2018
Обложка : Yes
Тип обложки : Cover (front)
MIME-тип обложки : image/jpeg
Примечание : ~ N ~

Аудио
Формат : FLAC
Формат/Информация : Free Lossless Audio Codec
Продолжительность : 3 м. 28 с.
Вид битрейта : Переменный
Битрейт : 1424 Кбит/сек
Каналы : 2 канала
Расположение каналов : Front: L R
Частота : 44,1 КГц
Битовая глубина : 24 бит
Размер потока : 35,3 Мбайт (100%)
Библиотека кодирования : libFLAC 1.3.1 (UTC 2014-11-25)

Общее
Полное имя : C:DownloadsFinishBlitzen Trapper - Furr (10th Anniversary Deluxe Edition) 2018 FLAC [24-44,1]13 - Lady On The Water.flac
Формат : FLAC
Формат/Информация : Free Lossless Audio Codec
Размер файла : 26,4 Мбайт
Продолжительность : 2 м. 26 с.
Режим общего битрейта : Переменный
Общий поток : 1513 Кбит/сек
Альбом : Furr (10th Anniversary Deluxe Edition)
Альбом/Исполнитель : Blitzen Trapper / Blitzen Trapper
Трек : Lady on the Water
Трек/Положение : 13
Трек/Всего : 25
Исполнитель : Blitzen Trapper
Кодирование произвёл : ЯОR
Жанр : Folk Rock
Дата записи : 2018
Обложка : Yes
Тип обложки : Cover (front)
MIME-тип обложки : image/jpeg
Примечание : ~ N ~

Аудио
Формат : FLAC
Формат/Информация : Free Lossless Audio Codec
Продолжительность : 2 м. 26 с.
Вид битрейта : Переменный
Битрейт : 1506 Кбит/сек
Каналы : 2 канала
Расположение каналов : Front: L R
Частота : 44,1 КГц
Битовая глубина : 24 бит
Размер потока : 26,3 Мбайт (100%)
Библиотека кодирования : libFLAC 1.3.1 (UTC 2014-11-25)

Общее
Полное имя : C:DownloadsFinishBlitzen Trapper - Furr (10th Anniversary Deluxe Edition) 2018 FLAC [24-44,1]14 - War Is Placebo.flac
Формат : FLAC
Формат/Информация : Free Lossless Audio Codec
Размер файла : 27,7 Мбайт
Продолжительность : 2 м. 17 с.
Режим общего битрейта : Переменный
Общий поток : 1686 Кбит/сек
Альбом : Furr (10th Anniversary Deluxe Edition)
Альбом/Исполнитель : Blitzen Trapper / Blitzen Trapper
Трек : War Is Placebo
Трек/Положение : 14
Трек/Всего : 25
Исполнитель : Blitzen Trapper
Кодирование произвёл : ЯОR
Жанр : Folk Rock
Дата записи : 2018
Обложка : Yes
Тип обложки : Cover (front)
MIME-тип обложки : image/jpeg
Примечание : ~ N ~

Аудио
Формат : FLAC
Формат/Информация : Free Lossless Audio Codec
Продолжительность : 2 м. 17 с.
Вид битрейта : Переменный
Битрейт : 1679 Кбит/сек
Каналы : 2 канала
Расположение каналов : Front: L R
Частота : 44,1 КГц
Битовая глубина : 24 бит
Размер потока : 27,6 Мбайт (100%)
Библиотека кодирования : libFLAC 1.3.1 (UTC 2014-11-25)

Общее
Полное имя : C:DownloadsFinishBlitzen Trapper - Furr (10th Anniversary Deluxe Edition) 2018 FLAC [24-44,1]15 - Simple Tree.flac
Формат : FLAC
Формат/Информация : Free Lossless Audio Codec
Размер файла : 30,9 Мбайт
Продолжительность : 2 м. 28 с.
Режим общего битрейта : Переменный
Общий поток : 1750 Кбит/сек
Альбом : Furr (10th Anniversary Deluxe Edition)
Альбом/Исполнитель : Blitzen Trapper / Blitzen Trapper
Трек : Simple Tree
Трек/Положение : 15
Трек/Всего : 25
Исполнитель : Blitzen Trapper
Кодирование произвёл : ЯОR
Жанр : Folk Rock
Дата записи : 2018
Обложка : Yes
Тип обложки : Cover (front)
MIME-тип обложки : image/jpeg
Примечание : ~ N ~

Аудио
Формат : FLAC
Формат/Информация : Free Lossless Audio Codec
Продолжительность : 2 м. 28 с.
Вид битрейта : Переменный
Битрейт : 1744 Кбит/сек
Каналы : 2 канала
Расположение каналов : Front: L R
Частота : 44,1 КГц
Битовая глубина : 24 бит
Размер потока : 30,8 Мбайт (100%)
Библиотека кодирования : libFLAC 1.3.1 (UTC 2014-11-25)

Общее
Полное имя : C:DownloadsFinishBlitzen Trapper - Furr (10th Anniversary Deluxe Edition) 2018 FLAC [24-44,1]16 - Booksmart Baby.flac
Формат : FLAC
Формат/Информация : Free Lossless Audio Codec
Размер файла : 20,8 Мбайт
Продолжительность : 1 м. 58 с.
Режим общего битрейта : Переменный
Общий поток : 1476 Кбит/сек
Альбом : Furr (10th Anniversary Deluxe Edition)
Альбом/Исполнитель : Blitzen Trapper / Blitzen Trapper
Трек : Booksmart Baby
Трек/Положение : 16
Трек/Всего : 25
Исполнитель : Blitzen Trapper
Кодирование произвёл : ЯОR
Жанр : Folk Rock
Дата записи : 2018
Обложка : Yes
Тип обложки : Cover (front)
MIME-тип обложки : image/jpeg
Примечание : ~ N ~

Аудио
Формат : FLAC
Формат/Информация : Free Lossless Audio Codec
Продолжительность : 1 м. 58 с.
Вид битрейта : Переменный
Битрейт : 1468 Кбит/сек
Каналы : 2 канала
Расположение каналов : Front: L R
Частота : 44,1 КГц
Битовая глубина : 24 бит
Размер потока : 20,7 Мбайт (99%)
Библиотека кодирования : libFLAC 1.3.1 (UTC 2014-11-25)

Общее
Полное имя : C:DownloadsFinishBlitzen Trapper - Furr (10th Anniversary Deluxe Edition) 2018 FLAC [24-44,1]17 - Heroes Of Doubt.flac
Формат : FLAC
Формат/Информация : Free Lossless Audio Codec
Размер файла : 39,7 Мбайт
Продолжительность : 3 м. 14 с.
Режим общего битрейта : Переменный
Общий поток : 1716 Кбит/сек
Альбом : Furr (10th Anniversary Deluxe Edition)
Альбом/Исполнитель : Blitzen Trapper / Blitzen Trapper
Трек : Heroes of Doubt
Трек/Положение : 17
Трек/Всего : 25
Исполнитель : Blitzen Trapper
Кодирование произвёл : ЯОR
Жанр : Folk Rock
Дата записи : 2018
Обложка : Yes
Тип обложки : Cover (front)
MIME-тип обложки : image/jpeg
Примечание : ~ N ~

Аудио
Формат : FLAC
Формат/Информация : Free Lossless Audio Codec
Продолжительность : 3 м. 14 с.
Вид битрейта : Переменный
Битрейт : 1711 Кбит/сек
Каналы : 2 канала
Расположение каналов : Front: L R
Частота : 44,1 КГц
Битовая глубина : 24 бит
Размер потока : 39,6 Мбайт (100%)
Библиотека кодирования : libFLAC 1.3.1 (UTC 2014-11-25)

Общее
Полное имя : C:DownloadsFinishBlitzen Trapper - Furr (10th Anniversary Deluxe Edition) 2018 FLAC [24-44,1]18 - Maybe Baby.flac
Формат : FLAC
Формат/Информация : Free Lossless Audio Codec
Размер файла : 23,3 Мбайт
Продолжительность : 1 м. 55 с.
Режим общего битрейта : Переменный
Общий поток : 1694 Кбит/сек
Альбом : Furr (10th Anniversary Deluxe Edition)
Альбом/Исполнитель : Blitzen Trapper / Blitzen Trapper
Трек : Maybe Baby
Трек/Положение : 18
Трек/Всего : 25
Исполнитель : Blitzen Trapper
Кодирование произвёл : ЯОR
Жанр : Folk Rock
Дата записи : 2018
Обложка : Yes
Тип обложки : Cover (front)
MIME-тип обложки : image/jpeg
Примечание : ~ N ~

Аудио
Формат : FLAC
Формат/Информация : Free Lossless Audio Codec
Продолжительность : 1 м. 55 с.
Вид битрейта : Переменный
Битрейт : 1685 Кбит/сек
Каналы : 2 канала
Расположение каналов : Front: L R
Частота : 44,1 КГц
Битовая глубина : 24 бит
Размер потока : 23,2 Мбайт (100%)
Библиотека кодирования : libFLAC 1.3.1 (UTC 2014-11-25)

Общее
Полное имя : C:DownloadsFinishBlitzen Trapper - Furr (10th Anniversary Deluxe Edition) 2018 FLAC [24-44,1]19 - Ballad Of Bird Love.flac
Формат : FLAC
Формат/Информация : Free Lossless Audio Codec
Размер файла : 43,6 Мбайт
Продолжительность : 3 м. 30 с.
Режим общего битрейта : Переменный
Общий поток : 1738 Кбит/сек
Альбом : Furr (10th Anniversary Deluxe Edition)
Альбом/Исполнитель : Blitzen Trapper / Blitzen Trapper
Трек : Ballad of Bird Love
Трек/Положение : 19
Трек/Всего : 25
Исполнитель : Blitzen Trapper
Кодирование произвёл : ЯОR
Жанр : Folk Rock
Дата записи : 2018
Обложка : Yes
Тип обложки : Cover (front)
MIME-тип обложки : image/jpeg
Примечание : ~ N ~

Аудио
Формат : FLAC
Формат/Информация : Free Lossless Audio Codec
Продолжительность : 3 м. 30 с.
Вид битрейта : Переменный
Битрейт : 1734 Кбит/сек
Каналы : 2 канала
Расположение каналов : Front: L R
Частота : 44,1 КГц
Битовая глубина : 24 бит
Размер потока : 43,5 Мбайт (100%)
Библиотека кодирования : libFLAC 1.3.1 (UTC 2014-11-25)

Общее
Полное имя : C:DownloadsFinishBlitzen Trapper - Furr (10th Anniversary Deluxe Edition) 2018 FLAC [24-44,1]20 - Hard Heart.flac
Формат : FLAC
Формат/Информация : Free Lossless Audio Codec
Размер файла : 25,0 Мбайт
Продолжительность : 2 м. 32 с.
Режим общего битрейта : Переменный
Общий поток : 1372 Кбит/сек
Альбом : Furr (10th Anniversary Deluxe Edition)
Альбом/Исполнитель : Blitzen Trapper / Blitzen Trapper
Трек : Hard Heart
Трек/Положение : 20
Трек/Всего : 25
Исполнитель : Blitzen Trapper
Кодирование произвёл : ЯОR
Жанр : Folk Rock
Дата записи : 2018
Обложка : Yes
Тип обложки : Cover (front)
MIME-тип обложки : image/jpeg
Примечание : ~ N ~

Аудио
Формат : FLAC
Формат/Информация : Free Lossless Audio Codec
Продолжительность : 2 м. 32 с.
Вид битрейта : Переменный
Битрейт : 1365 Кбит/сек
Каналы : 2 канала
Расположение каналов : Front: L R
Частота : 44,1 КГц
Битовая глубина : 24 бит
Размер потока : 24,8 Мбайт (100%)
Библиотека кодирования : libFLAC 1.3.1 (UTC 2014-11-25)

Общее
Полное имя : C:DownloadsFinishBlitzen Trapper - Furr (10th Anniversary Deluxe Edition) 2018 FLAC [24-44,1]21 - Other People's Money.flac
Формат : FLAC
Формат/Информация : Free Lossless Audio Codec
Размер файла : 44,6 Мбайт
Продолжительность : 3 м. 35 с.
Режим общего битрейта : Переменный
Общий поток : 1733 Кбит/сек
Альбом : Furr (10th Anniversary Deluxe Edition)
Альбом/Исполнитель : Blitzen Trapper / Blitzen Trapper
Трек : Other People's Money
Трек/Положение : 21
Трек/Всего : 25
Исполнитель : Blitzen Trapper
Кодирование произвёл : ЯОR
Жанр : Folk Rock
Дата записи : 2018
Обложка : Yes
Тип обложки : Cover (front)
MIME-тип обложки : image/jpeg
Примечание : ~ N ~

Аудио
Формат : FLAC
Формат/Информация : Free Lossless Audio Codec
Продолжительность : 3 м. 35 с.
Вид битрейта : Переменный
Битрейт : 1729 Кбит/сек
Каналы : 2 канала
Расположение каналов : Front: L R
Частота : 44,1 КГц
Битовая глубина : 24 бит
Размер потока : 44,5 Мбайт (100%)
Библиотека кодирования : libFLAC 1.3.1 (UTC 2014-11-25)

Общее
Полное имя : C:DownloadsFinishBlitzen Trapper - Furr (10th Anniversary Deluxe Edition) 2018 FLAC [24-44,1]22 - On My Way To The Bay.flac
Формат : FLAC
Формат/Информация : Free Lossless Audio Codec
Размер файла : 36,7 Мбайт
Продолжительность : 3 м. 13 с.
Режим общего битрейта : Переменный
Общий поток : 1593 Кбит/сек
Альбом : Furr (10th Anniversary Deluxe Edition)
Альбом/Исполнитель : Blitzen Trapper / Blitzen Trapper
Трек : On My Way to the Bay
Трек/Положение : 22
Трек/Всего : 25
Исполнитель : Blitzen Trapper
Кодирование произвёл : ЯОR
Жанр : Folk Rock
Дата записи : 2018
Обложка : Yes
Тип обложки : Cover (front)
MIME-тип обложки : image/jpeg
Примечание : ~ N ~

Аудио
Формат : FLAC
Формат/Информация : Free Lossless Audio Codec
Продолжительность : 3 м. 13 с.
Вид битрейта : Переменный
Битрейт : 1588 Кбит/сек
Каналы : 2 канала
Расположение каналов : Front: L R
Частота : 44,1 КГц
Битовая глубина : 24 бит
Размер потока : 36,6 Мбайт (100%)
Библиотека кодирования : libFLAC 1.3.1 (UTC 2014-11-25)

Общее
Полное имя : C:DownloadsFinishBlitzen Trapper - Furr (10th Anniversary Deluxe Edition) 2018 FLAC [24-44,1]23 - Rent-A-Cop.flac
Формат : FLAC
Формат/Информация : Free Lossless Audio Codec
Размер файла : 24,2 Мбайт
Продолжительность : 2 м. 6 с.
Режим общего битрейта : Переменный
Общий поток : 1604 Кбит/сек
Альбом : Furr (10th Anniversary Deluxe Edition)
Альбом/Исполнитель : Blitzen Trapper / Blitzen Trapper
Трек : Rent-a-Cop
Трек/Положение : 23
Трек/Всего : 25
Исполнитель : Blitzen Trapper
Кодирование произвёл : ЯОR
Жанр : Folk Rock
Дата записи : 2018
Обложка : Yes
Тип обложки : Cover (front)
MIME-тип обложки : image/jpeg
Примечание : ~ N ~

Аудио
Формат : FLAC
Формат/Информация : Free Lossless Audio Codec
Продолжительность : 2 м. 6 с.
Вид битрейта : Переменный
Битрейт : 1597 Кбит/сек
Каналы : 2 канала
Расположение каналов : Front: L R
Частота : 44,1 КГц
Битовая глубина : 24 бит
Размер потока : 24,1 Мбайт (100%)
Библиотека кодирования : libFLAC 1.3.1 (UTC 2014-11-25)

Общее
Полное имя : C:DownloadsFinishBlitzen Trapper - Furr (10th Anniversary Deluxe Edition) 2018 FLAC [24-44,1]24 - God & Suicide (Live At Kcrw).flac
Формат : FLAC
Формат/Информация : Free Lossless Audio Codec
Размер файла : 31,8 Мбайт
Продолжительность : 2 м. 57 с.
Режим общего битрейта : Переменный
Общий поток : 1505 Кбит/сек
Альбом : Furr (10th Anniversary Deluxe Edition)
Альбом/Исполнитель : Blitzen Trapper / Blitzen Trapper
Трек : God & Suicide (Live At Kcrw)
Трек/Положение : 24
Трек/Всего : 25
Исполнитель : Blitzen Trapper
Кодирование произвёл : ЯОR
Жанр : Folk Rock
Дата записи : 2018
Обложка : Yes
Тип обложки : Cover (front)
MIME-тип обложки : image/jpeg
Примечание : ~ N ~

Аудио
Формат : FLAC
Формат/Информация : Free Lossless Audio Codec
Продолжительность : 2 м. 57 с.
Вид битрейта : Переменный
Битрейт : 1500 Кбит/сек
Каналы : 2 канала
Расположение каналов : Front: L R
Частота : 44,1 КГц
Битовая глубина : 24 бит
Размер потока : 31,7 Мбайт (100%)
Библиотека кодирования : libFLAC 1.3.1 (UTC 2014-11-25)

Общее
Полное имя : C:DownloadsFinishBlitzen Trapper - Furr (10th Anniversary Deluxe Edition) 2018 FLAC [24-44,1]25 - Furr (Live At Kcrw).flac
Формат : FLAC
Формат/Информация : Free Lossless Audio Codec
Размер файла : 47,3 Мбайт
Продолжительность : 4 м. 21 с.
Режим общего битрейта : Переменный
Общий поток : 1518 Кбит/сек
Альбом : Furr (10th Anniversary Deluxe Edition)
Альбом/Исполнитель : Blitzen Trapper / Blitzen Trapper
Трек : Furr (Live At Kcrw)
Трек/Положение : 25
Трек/Всего : 25
Исполнитель : Blitzen Trapper
Кодирование произвёл : ЯОR
Жанр : Folk Rock
Дата записи : 2018
Обложка : Yes
Тип обложки : Cover (front)
MIME-тип обложки : image/jpeg
Примечание : ~ N ~

Аудио
Формат : FLAC
Формат/Информация : Free Lossless Audio Codec
Продолжительность : 4 м. 21 с.
Вид битрейта : Переменный
Битрейт : 1515 Кбит/сек
Каналы : 2 канала
Расположение каналов : Front: L R
Частота : 44,1 КГц
Битовая глубина : 24 бит
Размер потока : 47,2 Мбайт (100%)
Библиотека кодирования : libFLAC 1.3.1 (UTC 2014-11-25)
 

Вложения

  • 20,1 KB Просмотры: 1
    Личеров 0
    Сидеров 0
    Файлов 26
    Объем 839,1 MB

Привет!

Мы группа людей которые решили помочь другим в решении их проблем, а так же пользователям с поиском самых свежих и качественных инфопродуктов. За 4 с небольшим месяца мы создали этот форум на который заходят ежедневно тысячи человек и посещаемость постоянно растёт. Мы создали панель лицензирования для защиты PHP скриптов от воровства и SEO панель для мониторинга наших сайтов и выбора верной стратегии их развития. Мы надеемся что то что мы создали пригодится Вам и возможно Вы поможете нам развиваться и совершенствоваться вместе с Вами.

Статистика форума

Темы
406.541
Сообщения
464.666
Пользователи
83.323
Новый пользователь
Mks16

Приложения форума для iOS и Android


У ркн там нет власти ;)
Приватные разговоры
Помощь Пользователи
    Вы не присоединились ни к одной комнате.