За последнюю неделю опубликовано 59 новых материалов.
Инструкция новичку Путеводитель по форуму Прокси для Telegram Показать подсказки , это бомба!

Скачать Блэйд 2 / Blade 2 (2002) DVDRip-AVC | P | Fullscreen бесплатно через торрент

  • Поучаствуй (в качестве покупателя) в любых пяти совместных покупках (кроме завершённых и "Моментальных") и получи группу "Новичок" навсегда -> ссылка на раздел
  • Получай до 480 рублей за каждого приглашенного пользователя!
    представляем Вам очередное расширение партнерской программы, подробности описаны тут -> ссылка
  • 90% материалов доступно к скачиванию после простой регистрации!
    Если же ты хочешь скачивать материалы без требования оставлять отзывы то получи группу "Новичок", 10 способов повышения описаны тут -> ссылка
  • К сожалению количество битых ссылок растет и мы уже не можем их оперативно восстанавливать поэтому просим помощи у каждого нашего пользователя.
    С сегодняшнего дня, за каждую восстановленную ссылку мы заплатим Вам.
    Подробнее тут -> ссылка
  • Перенесем твои заслуги с другого ресурса!
    Мы понимаем как сложно прокачивать аккаунты на форумах, вроде раскачал аккаунт, а тут появляется ресурс в 100 раз круче но тоже с системой прокачки и снова качать аккаунт...
    Предлагаем вам перенести Ваши заслуги на другом подобном ресурсе к нам.
    Подробности описаны тут -> ссылка
  • Вы можете получать по 2.5% с каждой покупки и продажи на маркете! Подробности в теме Партнёрская программа
Если Вы не хотите скачивать, Вы всегда можетепосмотретьонлайн, просто нажмите кнопку ниже :

Открыть плеер

Torrent_Bot

Торрент-Бот
Бот форума
4 Окт 2016
92
163
20



Название: Блэйд 2
Оригинальное название: Blade 2
Год выхода: 2002
Жанр: Ужасы, Боевик, триллер, фэнтези
Режиссер: Гильермо Дель Торо
В ролях: Уэсли Снайпс, Крис Кристофферсон, Рон Перлман, Леонор Варела, Норман Ридус, Томас Кречманн, Люк Госс, Мэтт Шульц

О фильме:
Мир вампиров в ужасе от появления новой расы суперкровососов. Именно благодаря этому легендарный Блэйд и его учитель Уистлер вынуждены объединиться со своими кровными врагами - Кровавой Стаей, элитным отрядом вампиров-воинов.



Страна: США
Продолжительность: 01:56:48
Перевод: Профессиональный (многоголосый закадровый)

Формат: MKV
Качество: DVDRip-AVC
Видео: AVC/H.264, 720x480(4:3)@720x540, 23.976 fps, ~1564 Kbps
Аудио: AC3, 2 ch, 192 kbps - Русский (MVO НТВ)
Субтитры: нет

MediaInfo
General
Unique ID : 215501698416810408227676762835101096188 (0xA2201E0E3C6B115981F2896BA60F18FC)
Complete name : D:Блэйд 2 (2002) Fullscreen.mkv
Format : Matroska
Format version : Version 4
File size : 1.46 GiB
Duration : 1 h 56 min
Overall bit rate : 1 792 kb/s
Encoded date : UTC 2019-01-26 16:37:20
Writing application : mkvmerge v6.4.1 ('Omega Point') built on Sep 16 2013 22:05:10
Writing library : libebml v1.3.0 + libmatroska v1.4.1

Video
ID : 1
Format : AVC
Format/Info : Advanced Video Codec
Format profile : [email protected]
Format settings : CABAC / 6 Ref Frames
Format settings, CABAC : Yes
Format settings, Reference : 6 frames
Codec ID : V_MPEG4/ISO/AVC
Duration : 1 h 56 min
Bit rate : 1 564 kb/s
Width : 720 pixels
Height : 480 pixels
Display aspect ratio : 4:3
Frame rate mode : Constant
Frame rate : 23.976 (23976/1000) FPS
Color space : YUV
Chroma subsampling : 4:2:0
Bit depth : 8 bits
Scan type : Progressive
Bits/(Pixel*Frame) : 0.189
Stream size : 1.28 GiB (87%)
Default : Yes
Forced : No

Audio
ID : 2
Format : AC-3
Format/Info : Audio Coding 3
Commercial name : Dolby Digital
Codec ID : A_AC3
Duration : 1 h 56 min
Bit rate mode : Constant
Bit rate : 192 kb/s
Channel(s) : 2 channels
Channel layout : L R
Sampling rate : 48.0 kHz
Frame rate : 31.250 FPS (1536 SPF)
Bit depth : 16 bits
Compression mode : Lossy
Stream size : 160 MiB (11%)
Language : Russian
Service kind : Complete Main
Default : Yes
Forced : No
Сравнения:


Скриншоты
 

Вложения

  • 15,5 KB Просмотры: 0
    Личеров 0
    Сидеров 0
    Файлов 1
    Объем 1,5 GB

Привет!

Мы группа людей которые решили помочь другим в решении их проблем, а так же пользователям с поиском самых свежих и качественных инфопродуктов. За 4 с небольшим месяца мы создали этот форум на который заходят ежедневно тысячи человек и посещаемость постоянно растёт. Мы создали панель лицензирования для защиты PHP скриптов от воровства и SEO панель для мониторинга наших сайтов и выбора верной стратегии их развития. Мы надеемся что то что мы создали пригодится Вам и возможно Вы поможете нам развиваться и совершенствоваться вместе с Вами.

Статистика форума

Темы
406.678
Сообщения
465.125
Пользователи
84.737
Новый пользователь
Mo0dak

Приложения форума для iOS и Android


У ркн там нет власти ;)
Приватные разговоры
Помощь Пользователи
    Вы не присоединились ни к одной комнате.