За последнюю неделю опубликовано 197 новых материалов.
Инструкция новичку Путеводитель по форуму Прокси для Telegram Показать подсказки , это бомба!

Скачать Бладфест / Blood Fest (2018) BDRemux 1080р | GER Transfer | P, D бесплатно через торрент

  • Поучаствуй (в качестве покупателя) в любых пяти совместных покупках (кроме завершённых и "Моментальных") и получи группу "Новичок" навсегда -> ссылка на раздел
  • Получай до 480 рублей за каждого приглашенного пользователя!
    представляем Вам очередное расширение партнерской программы, подробности описаны тут -> ссылка
  • 90% материалов доступно к скачиванию после простой регистрации!
    Если же ты хочешь скачивать материалы без требования оставлять отзывы то получи группу "Новичок", 10 способов повышения описаны тут -> ссылка
  • К сожалению количество битых ссылок растет и мы уже не можем их оперативно восстанавливать поэтому просим помощи у каждого нашего пользователя.
    С сегодняшнего дня, за каждую восстановленную ссылку мы заплатим Вам.
    Подробнее тут -> ссылка
  • Перенесем твои заслуги с другого ресурса!
    Мы понимаем как сложно прокачивать аккаунты на форумах, вроде раскачал аккаунт, а тут появляется ресурс в 100 раз круче но тоже с системой прокачки и снова качать аккаунт...
    Предлагаем вам перенести Ваши заслуги на другом подобном ресурсе к нам.
    Подробности описаны тут -> ссылка
  • Вы можете получать по 2.5% с каждой покупки и продажи на маркете! Подробности в теме Партнёрская программа
Если Вы не хотите скачивать, Вы всегда можетепосмотретьонлайн, просто нажмите кнопку ниже :

Открыть плеер

Torrent_Bot

Торрент-Бот
Бот форума
4 Окт 2016
124
94
20



Информация о фильме
Название: Бладфест
Оригинальное название: Blood Fest
Год выхода: 2018
Жанр: ужасы, комедия
Режиссер: Оуэн Эгертон
В ролях: Закари Ливай, Сейшелл Гэбриел, Тейт Донован, Робби Кей, Джейкоб Баталон, Исла Червелли, Барбара Данкельман, Оливия Грэйс Эпплгейт, Джульетт Кида, Пол Огола

О фильме:
Ещё ребенком Дакс стал свидетелем убийства матери, но после этого не перестал любить фильмы ужасов. Через несколько лет в компании единомышленников парень готовится поехать на Бладфест, посвященный самым известным картинам жанра, но отец сильно против. Все-таки пробравшись на заветное мероприятие, Дакс с друзьями вскоре обнаруживает, что название у фестиваля буквальное — фанаты фильмов ужасов сами оказываются участниками кровавого хоррора.



Страна: США
Продолжительность: 01:32:41
Перевод 1: профессиональный (дублированный) line
Перевод 2: профессиональный (многоголосый закадровый) HDrezka Studio
Оригинальная аудиодорожка: английский

Файл
Качество: BDRemux 1080р
Видео: MPEG2, 18.0 Мбит/с, 1920x1080
Звук: Русский (АС3, 2 ch, 192 Кбит/с), английский (DTS-HD MA, 6 ch, 3594 Кбит/с)

Скриншоты
MediaInfo
General
Unique ID : 19401353633500142367295394453829543713 (0xE9890963CC48E94964B9293A23D6721)
Complete name : F:Новая папка (16)Blood.Fest.2018.BDREMUX 1080p.mkv
Format : Matroska
Format version : Version 4
File size : 14.2 GiB
Duration : 1 h 32 min
Overall bit rate mode : Variable
Overall bit rate : 22.0 Mb/s
Movie name : Blood.Fest.2018.BDREMUX 1080p
Encoded date : UTC 2019-12-24 17:05:56
Writing application : mkvmerge v29.0.0 ('Like It Or Not') 64-bit
Writing library : libebml v1.3.6 + libmatroska v1.4.9
Cover : Yes
Attachments : cover.jpg / cover_land.jpg / small_cover.jpg / small_cover_land.jpg

Video
ID : 1
Format : MPEG Video
Format version : Version 2
Format profile : Main@High
Format settings : CustomMatrix / BVOP
Format settings, BVOP : Yes
Format settings, Matrix : Custom
Format settings, GOP : M=3, N=15
Codec ID : V_MPEG2
Codec ID/Info : MPEG 1 or 2 Video
Duration : 1 h 32 min
Bit rate mode : Variable
Bit rate : 18.0 Mb/s
Maximum bit rate : 25.0 Mb/s
Width : 1 920 pixels
Height : 1 080 pixels
Display aspect ratio : 16:9
Frame rate mode : Constant
Frame rate : 23.976 (24000/1001) FPS
Color space : YUV
Chroma subsampling : 4:2:0
Bit depth : 8 bits
Scan type : Progressive
Compression mode : Lossy
Bits/(Pixel*Frame) : 0.362
Time code of first frame : 00:00:00:00
Time code source : Group of pictures header
GOP, Open/Closed : Closed
Stream size : 11.6 GiB (82%)
Title : Blood.Fest.2018.BDREMUX 1080p
Language : English
Default : No
Forced : No

Audio #1
ID : 2
Format : AC-3
Format/Info : Audio Coding 3
Commercial name : Dolby Digital
Codec ID : A_AC3
Duration : 1 h 32 min
Bit rate mode : Constant
Bit rate : 192 kb/s
Channel(s) : 2 channels
Channel layout : L R
Sampling rate : 48.0 kHz
Frame rate : 31.250 FPS (1536 SPF)
Bit depth : 16 bits
Compression mode : Lossy
Stream size : 127 MiB (1%)
Title : Dub (Line)
Language : Russian
Service kind : Complete Main
Default : Yes
Forced : No

Audio #2
ID : 3
Format : AC-3
Format/Info : Audio Coding 3
Commercial name : Dolby Digital
Codec ID : A_AC3
Duration : 1 h 32 min
Bit rate mode : Constant
Bit rate : 192 kb/s
Channel(s) : 2 channels
Channel layout : L R
Sampling rate : 48.0 kHz
Frame rate : 31.250 FPS (1536 SPF)
Bit depth : 16 bits
Compression mode : Lossy
Stream size : 127 MiB (1%)
Title : MVO (HDrezka Studio)
Language : Russian
Service kind : Complete Main
Default : No
Forced : No

Audio #3
ID : 4
Format : DTS XLL
Format/Info : Digital Theater Systems
Commercial name : DTS-HD Master Audio
Codec ID : A_DTS
Duration : 1 h 32 min
Bit rate mode : Variable
Bit rate : 3 594 kb/s
Channel(s) : 6 channels
Channel layout : C L R Ls Rs LFE
Sampling rate : 48.0 kHz
Frame rate : 93.750 FPS (512 SPF)
Bit depth : 24 bits
Compression mode : Lossless
Stream size : 2.33 GiB (16%)
Title : Original
Language : English
Default : No
Forced : No

Menu
00:00:00.000 : de:Chapter 01
00:11:10.044 : de:Chapter 02
00:22:30.724 : de:Chapter 03
00:34:59.639 : de:Chapter 04
00:46:09.892 : de:Chapter 05
00:57:06.756 : de:Chapter 06
01:07:09.066 : de:Chapter 07
01:18:15.732 : de:Chapter 08
01:27:12.101 : de:Chapter 09
 

Вложения

  • 143,2 KB Просмотры: 0
    Личеров 0
    Сидеров 0
    Файлов 1
    Объем 14,2 GB
Ваш e-mail не будет опубликован. Он потребуется для подтверждения Вашего поста.
Оформление текста Нажмите «Ввод», чтобы отправить ответ.

Привет!

Мы группа людей которые решили помочь другим в решении их проблем, а так же пользователям с поиском самых свежих и качественных инфопродуктов. За 4 с небольшим месяца мы создали этот форум на который заходят ежедневно тысячи человек и посещаемость постоянно растёт. Мы создали панель лицензирования для защиты PHP скриптов от воровства и SEO панель для мониторинга наших сайтов и выбора верной стратегии их развития. Мы надеемся что то что мы создали пригодится Вам и возможно Вы поможете нам развиваться и совершенствоваться вместе с Вами.

Статистика форума

Темы
378.709
Сообщения
417.938
Пользователи
49.474
Новый пользователь
lolololol

Приложения форума для iOS и Android


У ркн там нет власти ;)
Приватные разговоры
Помощь Пользователи
    Вы не присоединились ни к одной комнате.