За последнюю неделю опубликовано 30 новых материалов.
Инструкция новичку Путеводитель по форуму Прокси для Telegram Показать подсказки , это бомба!

Скачать Black Spaghetti ‎ - Hallelujah! (1996) FLAC бесплатно через торрент

  • Поучаствуй (в качестве покупателя) в любых пяти совместных покупках (кроме завершённых и "Моментальных") и получи группу "Новичок" навсегда -> ссылка на раздел
  • Получай до 480 рублей за каждого приглашенного пользователя!
    представляем Вам очередное расширение партнерской программы, подробности описаны тут -> ссылка
  • 90% материалов доступно к скачиванию после простой регистрации!
    Если же ты хочешь скачивать материалы без требования оставлять отзывы то получи группу "Новичок", 10 способов повышения описаны тут -> ссылка
  • К сожалению количество битых ссылок растет и мы уже не можем их оперативно восстанавливать поэтому просим помощи у каждого нашего пользователя.
    С сегодняшнего дня, за каждую восстановленную ссылку мы заплатим Вам.
    Подробнее тут -> ссылка
  • Перенесем твои заслуги с другого ресурса!
    Мы понимаем как сложно прокачивать аккаунты на форумах, вроде раскачал аккаунт, а тут появляется ресурс в 100 раз круче но тоже с системой прокачки и снова качать аккаунт...
    Предлагаем вам перенести Ваши заслуги на другом подобном ресурсе к нам.
    Подробности описаны тут -> ссылка
  • Вы можете получать по 2.5% с каждой покупки и продажи на маркете! Подробности в теме Партнёрская программа

Torrent_Bot

Торрент-Бот
Бот форума
4 Окт 2016
93
160
20



Название: Hallelujah! (Album)
Исполнитель: Black Spaghetti ‎
Год: 1996
Жанр: Eurodance, Euro House
Страна: Austria

Продолжительность: 00:52:29
Формат/Кодек: FLAC
Битрейт аудио: Lossless

Официальный сайт

Трек-лист
1 Groovin' (Fellows Mix) 04:06
2 Fight For Your Right 03:48
3 That's The Way The Rhythm Goes 03:37
4 Peace (Olympic Mix) 03:53
5 Change The Future 03:50
6 Yowi, Yowi (The Message Mix) 03:40
7 Hallelujah (Celebration Mix) 04:19
8 Don't Take My Love Away 03:54
9 U Feel The Rhythm (Hey Mr. DJ) 04:07
10 Loneliness 04:21
11 Never Rob My Body 03:52
12 Build Up My Mind 03:42
13 Peace (Rave Version) 05:14

Лог проверки качества
ANALYZER: auCDtect: CD records authenticity detector, version 0.8.2
Copyright (c) 2004 Oleg Berngardt. All rights reserved.
Copyright (c) 2004 Alexander Djourik. All rights reserved.

FILE: 13 Peace (Rave Version).flac
Size: 40382905 Hash: 453E32F12318AC5E27542F279B637935 Accuracy: -m0
Conclusion: CDDA 100%
Signature: EC2864CCA7DE6CB0C9519F1954D02B4C62CD9914
FILE: 12 Build Up My Mind.flac
Size: 29025321 Hash: 41C93F8F23F564A94F63A5E31872F68B Accuracy: -m0
Conclusion: CDDA 100%
Signature: A133743342BBFD360B9A86EA2716D274165F25FE
FILE: 11 Never Rob My Body.flac
Size: 29813450 Hash: A230840FD620CF27223CC6D76F067BEB Accuracy: -m0
Conclusion: MPEG 95%
Signature: FD629EAD19F301FC96BA986E4692E21BF56B37A5
FILE: 10 Loneliness.flac
Size: 34137872 Hash: B15F4E9DBBBD5F2C2F343FACEB8ABCD3 Accuracy: -m0
Conclusion: CDDA 100%
Signature: 39E613E66CFCBBC1BDA0DD8CE684C6314529899C
FILE: 09 U Feel The Rhythm (Hey Mr. DJ).flac
Size: 33031565 Hash: D8E3438C081A18B0E65E70EEBF4F3B40 Accuracy: -m0
Conclusion: CDDA 100%
Signature: 52F8ACDBD4CF93F09136099FB97CB2E2E923F22C
FILE: 08 Don't Take My Love Away.flac
Size: 28746401 Hash: 67C4629D4A9C5CD5E2006DEBBE622F98 Accuracy: -m0
Conclusion: CDDA 100%
Signature: D1580015E17E15393866186F7103FC4010CBA1BC
FILE: 07 Hallelujah (Celebration Mix).flac
Size: 33907428 Hash: 56009BCAC88C74B24F0E74AF8EE58C97 Accuracy: -m0
Conclusion: CDDA 100%
Signature: A5455D79F1CEF849B365C824A459A65230F56C56
FILE: 06 Yowi Yowi (The Message Mix).flac
Size: 28607874 Hash: 705F4200CDCE91BBDBFCE444A34077AF Accuracy: -m0
Conclusion: CDDA 100%
Signature: 556B7DB485F31FA4CC7BC1E242442B21F2D063EC
FILE: 05 Change The Future.flac
Size: 31906675 Hash: 3905D863FDE3B59C499B33087F812AA4 Accuracy: -m0
Conclusion: CDDA 100%
Signature: 7F525FFB7C30CC97F9C00B084C78867B8F28B16D
FILE: 04 Peace (Olympic Mix).flac
Size: 31403212 Hash: BF923438D91F7C86A89FD064F42F6B01 Accuracy: -m0
Conclusion: CDDA 100%
Signature: D7646994A189D4951A88660118F9B52243CAEB74
FILE: 03 That's The Way The Rhythm Goes.flac
Size: 29247171 Hash: 43E2D0E797FBA7811E7923E6ACB09D0B Accuracy: -m0
Conclusion: CDDA 100%
Signature: BC4C1417DC9A5137ECB85F740920A9E43383F67B
FILE: 02 Fight For Your Right.flac
Size: 28127924 Hash: 7F13F38AFA7CBB2FB37B9FA5672D2266 Accuracy: -m0
Conclusion: CDDA 100%
Signature: F0360955A26CED3E45A70F795236E3ACBEACDD4E
FILE: 01 Groovin' (Fellows Mix).flac
Size: 32524872 Hash: 44C18E99EE4B059B2682EF920EBAE180 Accuracy: -m0
Conclusion: CDDA 100%
Signature: 88D230E69BD4B56F16EB9BF2B61212D76E0CCAEE

Dr-log:
Analyzed folder: D:ВидеоклипыconverterBlack Spaghetti - Hallelujah! (Album)Hallelujah! (Album)
----------------------------------------------------------------------------------------------
DR Peak RMS Filename
----------------------------------------------------------------------------------------------

DR6 -0.18 dB -7.22 dB 01 Groovin' (Fellows Mix).wav
DR10 -0.18 dB -11.86 dB 02 Fight For Your Right.wav
DR8 -0.18 dB -9.30 dB 03 That's The Way The Rhythm Goes.wav
DR8 -0.18 dB -10.02 dB 04 Peace (Olympic Mix).wav
DR9 -0.18 dB -10.53 dB 05 Change The Future.wav
DR9 -0.18 dB -9.50 dB 06 Yowi Yowi (The Message Mix).wav
DR9 -0.18 dB -10.41 dB 07 Hallelujah (Celebration Mix).wav
DR11 -0.18 dB -12.81 dB 08 Don't Take My Love Away.wav
DR9 -0.18 dB -10.36 dB 09 U Feel The Rhythm (Hey Mr. DJ).wav
DR10 -0.18 dB -11.47 dB 10 Loneliness.wav
DR10 -0.18 dB -11.11 dB 11 Never Rob My Body.wav
DR11 -0.18 dB -12.47 dB 12 Build Up My Mind.wav
DR9 -0.18 dB -10.65 dB 13 Peace (Rave Version).wav
----------------------------------------------------------------------------------------------

Number of files: 13
Official DR value: DR9
 

Вложения

  • 17,1 KB Просмотры: 0
    Личеров 0
    Сидеров 0
    Файлов 14
    Объем 392,7 MB

Привет!

Мы группа людей которые решили помочь другим в решении их проблем, а так же пользователям с поиском самых свежих и качественных инфопродуктов. За 4 с небольшим месяца мы создали этот форум на который заходят ежедневно тысячи человек и посещаемость постоянно растёт. Мы создали панель лицензирования для защиты PHP скриптов от воровства и SEO панель для мониторинга наших сайтов и выбора верной стратегии их развития. Мы надеемся что то что мы создали пригодится Вам и возможно Вы поможете нам развиваться и совершенствоваться вместе с Вами.

Статистика форума

Темы
406.605
Сообщения
465.025
Пользователи
84.382
Новый пользователь
vance_b

Приложения форума для iOS и Android


У ркн там нет власти ;)
Приватные разговоры
Помощь Пользователи
    Вы не присоединились ни к одной комнате.