За последнюю неделю опубликовано 57 новых материалов.
Инструкция новичку Путеводитель по форуму Прокси для Telegram Показать подсказки , это бомба!

Скачать Black Eyed Peas - Translation [24bit Hi-Res] (2020) FLAC бесплатно через торрент

  • Поучаствуй (в качестве покупателя) в любых пяти совместных покупках (кроме завершённых и "Моментальных") и получи группу "Новичок" навсегда -> ссылка на раздел
  • Получай до 480 рублей за каждого приглашенного пользователя!
    представляем Вам очередное расширение партнерской программы, подробности описаны тут -> ссылка
  • 90% материалов доступно к скачиванию после простой регистрации!
    Если же ты хочешь скачивать материалы без требования оставлять отзывы то получи группу "Новичок", 10 способов повышения описаны тут -> ссылка
  • К сожалению количество битых ссылок растет и мы уже не можем их оперативно восстанавливать поэтому просим помощи у каждого нашего пользователя.
    С сегодняшнего дня, за каждую восстановленную ссылку мы заплатим Вам.
    Подробнее тут -> ссылка
  • Перенесем твои заслуги с другого ресурса!
    Мы понимаем как сложно прокачивать аккаунты на форумах, вроде раскачал аккаунт, а тут появляется ресурс в 100 раз круче но тоже с системой прокачки и снова качать аккаунт...
    Предлагаем вам перенести Ваши заслуги на другом подобном ресурсе к нам.
    Подробности описаны тут -> ссылка
  • Вы можете получать по 2.5% с каждой покупки и продажи на маркете! Подробности в теме Партнёрская программа

Torrent_Bot

Торрент-Бот
Бот форума
4 Окт 2016
92
163
20



Исполнитель: Black Eyed Peas | Название: Translation
Страна: USA | Жанр: Hip-Hop, Dance-Pop, Reggaeton
Год: 2020 | Продолжительность: 00:56:31
Битрейт аудио: Lossless | Формат/Кодек: FLAC
Количество каналов: 2.0 | Разрядность: 24/48
Тип рипа: tracks



tracklist
01. Black Eyed Peas & J Balvin - RITMO (Bad Boys For Life) (03:34)
02. Black Eyed Peas & Maluma - FEEL THE BEAT (03:57)
03. Black Eyed Peas & Ozuna X J. Rey Soul - MAMACITA (04:11)
04. Black Eyed Peas & Shakira - GIRL LIKE ME (03:42)
05. Black Eyed Peas & Nicky Jam X Tyga - VIDA LOCA (03:54)
06. Black Eyed Peas & El Alfa - NO MAÑANA (03:41)
07. Black Eyed Peas & J. Rey Soul - TONTA LOVE (03:50)
08. Black Eyed Peas - CELEBRATE (03:39)
09. Black Eyed Peas & Piso 21 - TODO BUENO (03:50)
10. Black Eyed Peas & Becky G - DURO HARD (03:25)
11. Black Eyed Peas & French Montana - MABUTI (04:16)
12. Black Eyed Peas - I WOKE UP (03:30)
13. Black Eyed Peas - GET LOOSE NOW (02:27)
14. Black Eyed Peas - ACTION (04:12)
15. Black Eyed Peas - NEWS TODAY (04:16)
DR
foobar2000 1.5 / Замер динамического диапазона (DR) 1.1.1
Дата отчёта: 2020-06-19 22:10:03

--------------------------------------------------------------------------------
Анализ: The Black Eyed Peas / Translation
--------------------------------------------------------------------------------

DR Пики RMS Продолжительность трека
--------------------------------------------------------------------------------
DR6 0.00 дБ -7.85 дБ 3:35 01-RITMO (Bad Boys For Life)
DR6 0.00 дБ -7.63 дБ 3:58 02-FEEL THE BEAT
DR7 0.00 дБ -8.14 дБ 4:11 03-MAMACITA
DR5 -0.20 дБ -6.91 дБ 3:43 04-GIRL LIKE ME
DR6 0.00 дБ -7.51 дБ 3:54 05-VIDA LOCA
DR5 -0.15 дБ -6.12 дБ 3:42 06-NO MAÑANA
DR5 0.00 дБ -6.77 дБ 3:50 07-TONTA LOVE
DR7 -0.23 дБ -8.65 дБ 3:40 08-CELEBRATE
DR4 0.00 дБ -6.58 дБ 3:50 09-TODO BUENO
DR6 -0.15 дБ -7.96 дБ 3:25 10-DURO HARD
DR6 -0.09 дБ -7.89 дБ 4:16 11-MABUTI
DR7 0.00 дБ -7.99 дБ 3:30 12-I WOKE UP
DR4 -0.14 дБ -5.93 дБ 2:27 13-GET LOOSE NOW
DR6 0.00 дБ -7.43 дБ 4:12 14-ACTION
DR7 -0.27 дБ -8.69 дБ 4:16 15-NEWS TODAY
--------------------------------------------------------------------------------

Количество треков: 15
Реальные значения DR: DR6

Частота: 48000 Гц
Каналов: 2
Разрядность: 24
Битрейт: 1616 кбит/с
Кодек: FLAC
================================================================================
Дополнительная информация: Одна из самых разносторонних хип-хоп-групп вернулась с первым альбомом почти два года. Если на прошлом релизе «Masters of the Sun Vol. 1» Black Eyed Peas вернулись с корням, то на «Translation» они обращаются к более глобальным мотивам — включая популярный нынче испаноязычный поп-звук.
Мы отправляемся в путешествие, чтобы транслировать и распространять инновационные ритмы по всему миру, и в этот путь мы берем с собой нашу семью.
Под «семьей» наверняка подразумевается внушительный список международных гостей (преимущественно — латиноамериканские звезды). Среди них — Shakira, J Balvin, Maluma, French Montana, Nicky Jam, Ozuna, Becky G, Tyga и J Rey Soul. Всего в «Translation» вошло 15 треков, за продакшн большинства которых отвечает will.i.am.
 

Вложения

  • 14,9 KB Просмотры: 0
    Личеров 0
    Сидеров 0
    Файлов 17
    Объем 674,2 MB

Привет!

Мы группа людей которые решили помочь другим в решении их проблем, а так же пользователям с поиском самых свежих и качественных инфопродуктов. За 4 с небольшим месяца мы создали этот форум на который заходят ежедневно тысячи человек и посещаемость постоянно растёт. Мы создали панель лицензирования для защиты PHP скриптов от воровства и SEO панель для мониторинга наших сайтов и выбора верной стратегии их развития. Мы надеемся что то что мы создали пригодится Вам и возможно Вы поможете нам развиваться и совершенствоваться вместе с Вами.

Статистика форума

Темы
406.699
Сообщения
465.164
Пользователи
84.823
Новый пользователь
servet2510

Приложения форума для iOS и Android


У ркн там нет власти ;)
Приватные разговоры
Помощь Пользователи
    Вы не присоединились ни к одной комнате.