За последнюю неделю опубликовано 32 новых материалов.
Инструкция новичку Путеводитель по форуму Прокси для Telegram Показать подсказки , это бомба!

Скачать Битвы за мораль на реке Канда / Kandagawa inran sensô / Kandagawa Pervert Wars (1983) DVDRip от liosaa | L1 бесплатно через торрент

  • Поучаствуй (в качестве покупателя) в любых пяти совместных покупках (кроме завершённых и "Моментальных") и получи группу "Новичок" навсегда -> ссылка на раздел
  • Получай до 480 рублей за каждого приглашенного пользователя!
    представляем Вам очередное расширение партнерской программы, подробности описаны тут -> ссылка
  • 90% материалов доступно к скачиванию после простой регистрации!
    Если же ты хочешь скачивать материалы без требования оставлять отзывы то получи группу "Новичок", 10 способов повышения описаны тут -> ссылка
  • К сожалению количество битых ссылок растет и мы уже не можем их оперативно восстанавливать поэтому просим помощи у каждого нашего пользователя.
    С сегодняшнего дня, за каждую восстановленную ссылку мы заплатим Вам.
    Подробнее тут -> ссылка
  • Перенесем твои заслуги с другого ресурса!
    Мы понимаем как сложно прокачивать аккаунты на форумах, вроде раскачал аккаунт, а тут появляется ресурс в 100 раз круче но тоже с системой прокачки и снова качать аккаунт...
    Предлагаем вам перенести Ваши заслуги на другом подобном ресурсе к нам.
    Подробности описаны тут -> ссылка
  • Вы можете получать по 2.5% с каждой покупки и продажи на маркете! Подробности в теме Партнёрская программа
Если Вы не хотите скачивать, Вы всегда можетепосмотретьонлайн, просто нажмите кнопку ниже :

Открыть плеер

Torrent_Bot

Торрент-Бот
Бот форума
4 Окт 2016
93
160
20



Информация о фильме
Название: Битвы за мораль на реке Канда
Оригинальное название: Kandagawa inran sensô / Kandagawa Pervert Wars
Год выхода: 1983
Жанр: комедия, эротика, мюзикл, драма, абсурд
Режиссер: Киёси Куросава / Kiyoshi Kurosawa
В ролях: Усаги Асо, Макото Ёсино, Хоуэн Кисино, Миико Саваки, Тацуя Мори

О фильме:
Две студентки, две соседки, две подружки - наблюдают по ночам за звёздным небом Токио, а заодно и за окнами общаги напротив, что на другом берегу мелководной речушки Канда. Там, в одной из комнатёнок, живёт-поживает чувак, готовящийся поступать на режиссёрский, со своей похотливой мамашей... Вообще-то девчонки всегда на расслабоне, не скупятся на лесбийские ласки и меняют ухажёров как перчатки - однако выхваченная биноклем сценка кровосмесительного соития мамаши с сыном напрочь их переклинивает, теперь они божатся наказать "кощунников" и восстановить общегородскую мораль... Итак, сценки военных действий, море обнажёнки, "пропахший порохом" день победы и весьма символичный для зачинщиц финал - всё это в дебютной пинку-комедии от маэстро ужасов Киёси Куросавы, который здесь только разминается, пробует силы, гибкость и возможности кино-языка (как казус отметим, что эту его работу можно встретить на порно-ресурсах в разделе "эротика").

В одном из поздних интервью режиссёр заметит: "Я занялся кинематографом не из желания рассказывать истории, а из желания узнать, как же он, чёрт возьми, устроен..." Эта фраза в первую очередь относится к двум его дебютным картинам (этой и МАЛЫШКЕ ДО-РЕ-МИ), сотканным из отсылок к Годару/Хичкоку/Форду и пропитанным духом авантюризма (после них режиссёр займётся сериальной теле-рутиной и заново откроет себя только лет через десять, к концу 90-х). (synopsis*liosaa)



Страна: Япония
Продолжительность: 00:59:32
Перевод: Любительский (одноголосый закадровый) liosaa

Файл
Кодек: XviD
Качество: DVDRip
Видео: 640x480 (4:3), 23.976 fps, 1465 Kbps
Звук: 48 kHz, AC3 Dolby Digital, 2/0 (L,R) ch, 192 kbps (рус) liosaa

MI
Формат : AVI
Формат/Информация : Audio Video Interleave
Размер файла : 711 Мбайт
Продолжительность : 59 м. 32 с.
Общий поток : 1669 Кбит/сек
Программа кодирования : VirtualDubMod 1.5.10.2 (build 2540/release)
Библиотека кодирования : VirtualDubMod build 2540/release

Видео
Идентификатор : 0
Формат : MPEG-4 Visual
Профиль формата : Advanced [email protected]
Настройки формата : BVOP2
Параметр BVOP формата : 2
Параметр QPel формата : Нет
Параметр GMC формата : Без точки перехода
Параметр матрицы формата : Default (H.263)
Идентификатор кодека : XVID
Идентификатор кодека/Подсказка : XviD
Продолжительность : 59 м. 32 с.
Битрейт : 1465 Кбит/сек
Ширина : 640 пикселей
Высота : 480 пикселей
Соотношение сторон : 4:3
Частота кадров : 29,970 (30000/1001) кадров/сек
Цветовое пространство : YUV
Субдискретизация насыщенности : 4:2:0
Битовая глубина : 8 бит
Тип развёртки : Прогрессивная
Метод сжатия : С потерями
Бит/(Пиксели*Кадры) : 0.159
Размер потока : 624 Мбайт (88%)
Библиотека кодирования : XviD 1.2.1 (UTC 2008-12-04)

Аудио
Идентификатор : 1
Формат : AC-3
Формат/Информация : Audio Coding 3
Коммерческое название : Dolby Digital
Идентификатор кодека : 2000
Продолжительность : 59 м. 32 с.
Вид битрейта : Постоянный
Битрейт : 192 Кбит/сек
Каналы : 2 канала
ChannelLayout : L R
Частота : 48,0 КГц
Частота кадров : 31,250 кадров/сек (1536 SPF)
Битовая глубина : 16 бит
Метод сжатия : С потерями
Размер потока : 81,8 Мбайт (12%)
Выравнивание : Разделение по промежуткам
Продолжительность промежутка : 33 мс. (1,00 видеокадр)
Время предзагрузки промежутка : 500 мс.
ServiceKind/ : Complete Main
Скриншоты

Релиз от: liosaa
 

Вложения

  • 15 KB Просмотры: 0
    Личеров 0
    Сидеров 0
    Файлов 1
    Объем 710,7 MB

Привет!

Мы группа людей которые решили помочь другим в решении их проблем, а так же пользователям с поиском самых свежих и качественных инфопродуктов. За 4 с небольшим месяца мы создали этот форум на который заходят ежедневно тысячи человек и посещаемость постоянно растёт. Мы создали панель лицензирования для защиты PHP скриптов от воровства и SEO панель для мониторинга наших сайтов и выбора верной стратегии их развития. Мы надеемся что то что мы создали пригодится Вам и возможно Вы поможете нам развиваться и совершенствоваться вместе с Вами.

Статистика форума

Темы
406.616
Сообщения
465.076
Пользователи
84.483
Новый пользователь
JackMiller

Приложения форума для iOS и Android


У ркн там нет власти ;)
Приватные разговоры
Помощь Пользователи
    Вы не присоединились ни к одной комнате.