За последнюю неделю опубликовано 47 новых материалов.
Инструкция новичку Путеводитель по форуму Прокси для Telegram Показать подсказки , это бомба!

Скачать Битва за Землю / Captive State (2019) BDRip 1080p от селезень | P бесплатно через торрент

  • Поучаствуй (в качестве покупателя) в любых пяти совместных покупках (кроме завершённых и "Моментальных") и получи группу "Новичок" навсегда -> ссылка на раздел
  • Получай до 480 рублей за каждого приглашенного пользователя!
    представляем Вам очередное расширение партнерской программы, подробности описаны тут -> ссылка
  • 90% материалов доступно к скачиванию после простой регистрации!
    Если же ты хочешь скачивать материалы без требования оставлять отзывы то получи группу "Новичок", 10 способов повышения описаны тут -> ссылка
  • К сожалению количество битых ссылок растет и мы уже не можем их оперативно восстанавливать поэтому просим помощи у каждого нашего пользователя.
    С сегодняшнего дня, за каждую восстановленную ссылку мы заплатим Вам.
    Подробнее тут -> ссылка
  • Перенесем твои заслуги с другого ресурса!
    Мы понимаем как сложно прокачивать аккаунты на форумах, вроде раскачал аккаунт, а тут появляется ресурс в 100 раз круче но тоже с системой прокачки и снова качать аккаунт...
    Предлагаем вам перенести Ваши заслуги на другом подобном ресурсе к нам.
    Подробности описаны тут -> ссылка
  • Вы можете получать по 2.5% с каждой покупки и продажи на маркете! Подробности в теме Партнёрская программа
Если Вы не хотите скачивать, Вы всегда можетепосмотретьонлайн, просто нажмите кнопку ниже :

Открыть плеер

Torrent_Bot

Торрент-Бот
Бот форума
4 Окт 2016
91
163
20


Информация о фильме
Название: Битва за Землю
Оригинальное название: Captive State
Год выхода: 2019
Жанр: Фантастика, триллер
Режиссер: Руперт Уайатт
В ролях: Джон Гудмен, Вера Фармига, Эштон Сандерс, Джонатан Мэйджерс, Кевин Данн, Джеймс Рэнсон, Алан Рак, Мадлен Брюэр, Машин Ган Келли, Кевин Дж. О`Коннор, Бен Дэниелс, Кэйтлин Эвальд, Лоуренс Грим, Гай Ван Сверинген, Елена Флорес, Д.Б. Суини, Рене Л. Морено, Та’Ронда Джонс, Ясен Пеянков, Кики Лэйн, Шэннон Кокрен



О фильме: Мы всегда знали, что не одни в этом мире. Мы отправляли сигналы в надежде получить ответ. И нас услышали. За считанные часы пришельцы захватили Землю и установили свое правительство. Сотовая связь и интернет отключены, электронные библиотеки уничтожены. Большой инопланетный брат следит за каждым, его дроны-охотники днем и ночью патрулируют улицы новой Земли. Мы - последние, те, у кого нет имени, невидимые для системы. Сегодня мы вернем нашу планету.

Страна: США
Студия: DreamWorks, Amblin Partners, Lightfuse & Gettaway
Продолжительность: 01:49:34
Перевод(ы):
#1: Профессиональный многоголосый | HDRezka Studio
#2: Профессиональный многоголосый | СВ Студия

Качество: BDRip 1080p
Видео: MPEG-4 AVC, 1920x804, 13.6 Mbit/s, 23.976 fps
Звук:
Аудио #01: 48 kHz, AC3, 2.0, 192 Kbps | HDRezka Studio | RUS |
Аудио #02: 48 kHz, AC3, 2.0, 192 Kbps | СВ Студия | RUS |
Аудио #03: 48 kHz, AC3, 5.1, 640 Kbps | Оригинал | ENG |
Субтитры: Русские (Full), английские



MI
General
Unique ID : 105032195295540827328653373394799468549 (0x4F04770A87F2B173B23C97B669B6A005)
Complete name : D:Video111Captive.State.2019.2xMVO.BDRip.1080p.seleZen.mkv
Format : Matroska
Format version : Version 4
File size : 11.2 GiB
Duration : 1 h 49 min
Overall bit rate : 14.6 Mb/s
Movie name : Captive State 2019 from селезень
Encoded date : UTC 2019-06-05 08:48:03
Writing application : mkvmerge v33.1.0 ('Primrose') 64-bit
Writing library : libebml v1.3.7 + libmatroska v1.5.0

Video
ID : 1
Format : AVC
Format/Info : Advanced Video Codec
Format profile : [email protected]
Format settings : CABAC / 5 Ref Frames
Format settings, CABAC : Yes
Format settings, Reference : 5 frames
Codec ID : V_MPEG4/ISO/AVC
Duration : 1 h 49 min
Bit rate : 13.6 Mb/s
Width : 1 920 pixels
Height : 804 pixels
Display aspect ratio : 2.40:1
Frame rate mode : Constant
Frame rate : 23.976 (24000/1001) FPS
Color space : YUV
Chroma subsampling : 4:2:0
Bit depth : 8 bits
Scan type : Progressive
Bits/(Pixel*Frame) : 0.367
Stream size : 10.4 GiB (93%)
Title : Du
Writing library : x264 core 155 r2867+74 66b5600 t_mod_Custom_2 [[email protected] X86_64]
Encoding settings : cabac=1 / ref=5 / deblock=1:-3:-3 / analyse=0x3:0x133 / me=umh / subme=11 / psy=1 / fade_compensate=0.00 / psy_rd=1.00:0.00 / mixed_ref=1 / me_range=32 / chroma_me=1 / trellis=2 / 8x8dct=1 / cqm=0 / deadzone=21,11 / fast_pskip=0 / chroma_qp_offset=-2 / threads=12 / lookahead_threads=2 / sliced_threads=0 / nr=0 / decimate=0 / interlaced=0 / bluray_compat=0 / constrained_intra=0 / fgo=0 / bframes=8 / b_pyramid=2 / b_adapt=2 / b_bias=0 / direct=3 / weightb=1 / open_gop=0 / weightp=2 / keyint=250 / keyint_min=23 / scenecut=40 / intra_refresh=0 / rc=2pass / mbtree=0 / bitrate=13600 / ratetol=1.0 / qcomp=0.60 / qpmin=0:0:0 / qpmax=69:69:69 / qpstep=4 / cplxblur=20.0 / qblur=0.5 / ip_ratio=1.30 / pb_ratio=1.20 / aq=3:0.70 / aq-sensitivity=10.00 / aq-factor=1.00:1.00:1.00 / aq2=0 / aq3=0
Language : English
Default : Yes
Forced : No
Color range : Limited
Matrix coefficients : BT.709

Audio #1
ID : 2
Format : AC-3
Format/Info : Audio Coding 3
Commercial name : Dolby Digital
Codec ID : A_AC3
Duration : 1 h 49 min
Bit rate mode : Constant
Bit rate : 192 kb/s
Channel(s) : 2 channels
Channel layout : L R
Sampling rate : 48.0 kHz
Frame rate : 31.250 FPS (1536 SPF)
Bit depth : 16 bits
Compression mode : Lossy
Stream size : 150 MiB (1%)
Title : MVO [HDRezka Studio]
Language : Russian
Service kind : Complete Main
Default : Yes
Forced : Yes

Audio #2
ID : 3
Format : AC-3
Format/Info : Audio Coding 3
Commercial name : Dolby Digital
Codec ID : A_AC3
Duration : 1 h 49 min
Bit rate mode : Constant
Bit rate : 192 kb/s
Channel(s) : 2 channels
Channel layout : L R
Sampling rate : 48.0 kHz
Frame rate : 31.250 FPS (1536 SPF)
Bit depth : 16 bits
Compression mode : Lossy
Stream size : 150 MiB (1%)
Title : MVO [СВ Студия]
Language : Russian
Service kind : Complete Main
Default : No
Forced : No

Audio #3
ID : 4
Format : AC-3
Format/Info : Audio Coding 3
Commercial name : Dolby Digital
Codec ID : A_AC3
Duration : 1 h 49 min
Bit rate mode : Constant
Bit rate : 640 kb/s
Channel(s) : 6 channels
Channel layout : L R C LFE Ls Rs
Sampling rate : 48.0 kHz
Frame rate : 31.250 FPS (1536 SPF)
Bit depth : 16 bits
Compression mode : Lossy
Stream size : 502 MiB (4%)
Title : Original
Language : English
Service kind : Complete Main
Default : No
Forced : No

Text #1
ID : 5
Format : UTF-8
Codec ID : S_TEXT/UTF8
Codec ID/Info : UTF-8 Plain Text
Duration : 1 h 44 min
Bit rate : 60 b/s
Count of elements : 849
Stream size : 46.0 KiB (0%)
Title : Full
Language : Russian
Default : No
Forced : No

Text #2
ID : 6
Format : UTF-8
Codec ID : S_TEXT/UTF8
Codec ID/Info : UTF-8 Plain Text
Duration : 1 h 44 min
Bit rate : 35 b/s
Count of elements : 803
Stream size : 27.5 KiB (0%)
Title : Full
Language : English
Default : No
Forced : No

Text #3
ID : 7
Format : UTF-8
Codec ID : S_TEXT/UTF8
Codec ID/Info : UTF-8 Plain Text
Duration : 1 h 45 min
Bit rate : 46 b/s
Count of elements : 1123
Stream size : 35.6 KiB (0%)
Title : SDH
Language : English
Default : No
Forced : No

Menu
00:00:00.000 : en:Chapter 01
00:06:25.385 : en:Chapter 02
00:12:34.671 : en:Chapter 03
00:18:46.000 : en:Chapter 04
00:24:21.377 : en:Chapter 05
00:26:55.113 : en:Chapter 06
00:32:44.504 : en:Chapter 07
00:38:27.597 : en:Chapter 08
00:43:36.948 : en:Chapter 09
00:47:17.626 : en:Chapter 10
00:52:14.465 : en:Chapter 11
01:00:01.598 : en:Chapter 12
01:06:42.373 : en:Chapter 13
01:11:29.577 : en:Chapter 14
01:15:18.222 : en:Chapter 15
01:19:40.859 : en:Chapter 16
01:23:32.049 : en:Chapter 17
01:31:46.543 : en:Chapter 18
01:38:12.011 : en:Chapter 19
01:45:00.711 : en:Chapter 20

Релиз:

 

Вложения

  • 15 KB Просмотры: 1
    Личеров 0
    Сидеров 0
    Файлов 1
    Объем 11,2 GB

Привет!

Мы группа людей которые решили помочь другим в решении их проблем, а так же пользователям с поиском самых свежих и качественных инфопродуктов. За 4 с небольшим месяца мы создали этот форум на который заходят ежедневно тысячи человек и посещаемость постоянно растёт. Мы создали панель лицензирования для защиты PHP скриптов от воровства и SEO панель для мониторинга наших сайтов и выбора верной стратегии их развития. Мы надеемся что то что мы создали пригодится Вам и возможно Вы поможете нам развиваться и совершенствоваться вместе с Вами.

Статистика форума

Темы
410.521
Сообщения
469.053
Пользователи
85.920
Новый пользователь
aaammmkkk

Приложения форума для iOS и Android


У ркн там нет власти ;)
Приватные разговоры
Помощь Пользователи
    Вы не присоединились ни к одной комнате.