За последнюю неделю опубликовано 48 новых материалов.
Инструкция новичку Путеводитель по форуму Прокси для Telegram Показать подсказки , это бомба!

Скачать Битва за Москву (1985) WEBRip-AVC бесплатно через торрент

  • Поучаствуй (в качестве покупателя) в любых пяти совместных покупках (кроме завершённых и "Моментальных") и получи группу "Новичок" навсегда -> ссылка на раздел
  • Получай до 480 рублей за каждого приглашенного пользователя!
    представляем Вам очередное расширение партнерской программы, подробности описаны тут -> ссылка
  • 90% материалов доступно к скачиванию после простой регистрации!
    Если же ты хочешь скачивать материалы без требования оставлять отзывы то получи группу "Новичок", 10 способов повышения описаны тут -> ссылка
  • К сожалению количество битых ссылок растет и мы уже не можем их оперативно восстанавливать поэтому просим помощи у каждого нашего пользователя.
    С сегодняшнего дня, за каждую восстановленную ссылку мы заплатим Вам.
    Подробнее тут -> ссылка
  • Перенесем твои заслуги с другого ресурса!
    Мы понимаем как сложно прокачивать аккаунты на форумах, вроде раскачал аккаунт, а тут появляется ресурс в 100 раз круче но тоже с системой прокачки и снова качать аккаунт...
    Предлагаем вам перенести Ваши заслуги на другом подобном ресурсе к нам.
    Подробности описаны тут -> ссылка
  • Вы можете получать по 2.5% с каждой покупки и продажи на маркете! Подробности в теме Партнёрская программа
Если Вы не хотите скачивать, Вы всегда можетепосмотретьонлайн, просто нажмите кнопку ниже :

Открыть плеер

Torrent_Bot

Торрент-Бот
Бот форума
4 Окт 2016
93
160
20


Информация о фильме
Название: Битва за Москву
Год выхода: 1985
Жанр: Драма, военный, история
Режиссер: Юрий Озеров
В ролях: Михаил Ульянов, Яков Трипольский, Александр Голобородько, Виталий Розстальный, Николай Засухин, Вячеслав Езепов, Владимир Трошин, Анатолий Никитин, Степан Микоян, Бруно Фрейндлих, Юрий Яковлев, Юозас Будрайтис, Александр Филиппенко, Николай Волков (младший), Леонид Кулагин, Валерий Юрченко, Ромуалдс Анцанс, Эммануил Виторган, Александр Мартынов, Владимир Кузнецов (VI), Ирина Шмелёва, Владимир Широков, Константин Степанов, Юрий Кузьменко, Ахим Петри, Эрнст Хайзе, Хельмут Хельсторф, Герд Михаэль Хеннеберг, Иоахим Томашевски, Эрик Фельдре, Экхард Беккер, Микк Микивер, Геннадий Сайфулин, Лев Прыгунов, Константин Степанков, Александр Воеводин, Николай Иванов, Николай Крючков, Ростислав Янковский, Леонид Евтифьев, Иржи Голый, Т. Голадзе...

О фильме:
22 июня 1941 года в 3 часа 30 минут фашистская Германия вероломно напала на Советский Союз. Суровым было начало Великой Отечественной войны. Красная Армия с жестокими боями отходила вглубь страны.
Однако в самые трудные времена советский народ не покидала вера в победу. Уже в сорок первом году план молниеносной войны, разработанный германским командованием, был перечеркнут героическим отпором советских людей.
Картина состоит из двух частей: "Агрессия" и "Тайфун".



Страна: СССР, Чехословакия, Германия (ГДР), Вьетнам
Студия: Мосфильм, Первое Творческое Объединение, Киностудия Баррандов, Киностудия Дефа, Киностудия Фафим
Продолжительность: 05:52:53 (01:21:04 + 01:31:52 + 01:26:28 + 01:33:29)
Перевод: Не требуется

Файл
Качество: WEBRip-AVC
Формат: MKV
Кодек: MPEG-4 AVC
Видео: 1024x436 (2,35:1), 25 fps, MPEG-4 AVC ~ 2383 Кbps avg, 0.213 bit/pixel
Аудио: AC3, 48 kHz, 2 ch, ~192.00 kbps avg | русский |
Субтитры: Отсутствуют


Инфо-файл
Общее
Уникальный идентификатор : 19922828540554170261371953287502228720 (0xEFCFF48E9BC8A79C5B748AD9FCFECF0)
Полное имя : Bitva.za.Moskvu.1985.WEBRip.x264Film.01.Bitva.za.Moskvu.Agressia.EP01.1985.WEBRip.x264.mkv
Формат : Matroska
Версия формата : Version 4
Размер файла : 1,46 Гбайт
Продолжительность : 1 ч. 21 м.
Общий поток : 2 577 Кбит/сек
Название фильма : Битва за Москву. Агрессия (1985)
Дата кодирования : UTC 2020-06-20 06:05:37
Программа кодирования : mkvmerge v47.0.0 ('Black Flag') 64-bit
Библиотека кодирования : libebml v1.3.10 + libmatroska v1.5.2
Обложка : Yes
Attachments : cover.jpg

Видео
Идентификатор : 1
Формат : AVC
Формат/Информация : Advanced Video Codec
Профиль формата : [email protected]
Настройки формата : CABAC / 10 Ref Frames
Параметр CABAC формата : Да
Параметр RefFrames формата : 10 кадров
Идентификатор кодека : V_MPEG4/ISO/AVC
Продолжительность : 1 ч. 21 м.
Битрейт : 2 383 Кбит/сек
Ширина : 1 024 пикселя
Высота : 436 пикселей
Соотношение сторон : 2,35:1
Режим частоты кадров : Постоянный
Частота кадров : 25,000 кадров/сек
Цветовое пространство : YUV
Субдискретизация насыщенности : 4:2:0
Битовая глубина : 8 бит
Тип развёртки : Прогрессивная
Бит/(Пиксели*Кадры) : 0.213
Размер потока : 1,35 Гбайт (92%)
Заголовок : #stillet
Библиотека кодирования : x264 core 152 r2851bm ba24899
Настройки программы : cabac=1 / ref=10 / deblock=1:-2:-2 / analyse=0x3:0x113 / me=umh / subme=11 / psy=1 / psy_rd=1.00:0.15 / mixed_ref=1 / me_range=32 / chroma_me=1 / trellis=2 / 8x8dct=1 / cqm=0 / deadzone=21,11 / fast_pskip=0 / chroma_qp_offset=-3 / threads=10 / lookahead_threads=3 / sliced_threads=0 / nr=0 / decimate=0 / interlaced=0 / bluray_compat=0 / constrained_intra=0 / bframes=10 / b_pyramid=2 / b_adapt=2 / b_bias=0 / direct=3 / weightb=1 / open_gop=0 / weightp=2 / keyint=250 / keyint_min=24 / scenecut=40 / intra_refresh=0 / rc=2pass / mbtree=0 / bitrate=2383 / ratetol=1.0 / qcomp=0.60 / qpmin=0 / qpmax=69 / qpstep=4 / cplxblur=20.0 / qblur=0.5 / ip_ratio=1.40 / pb_ratio=1.30 / aq=1:1.00
Язык : English
Default : Да
Forced : Нет

Аудио
Идентификатор : 2
Формат : AC-3
Формат/Информация : Audio Coding 3
Коммерческое название : Dolby Digital
Идентификатор кодека : A_AC3
Продолжительность : 1 ч. 21 м.
Вид битрейта : Постоянный
Битрейт : 192 Кбит/сек
Каналы : 2 канала
Channel layout : L R
Частота : 48,0 КГц
Частота кадров : 31,250 кадров/сек (1536 SPF)
Метод сжатия : С потерями
Размер потока : 111 Мбайт (7%)
Язык : Russian
Default : Да
Forced : Нет
Скриншоты












Сравнение с DVDRip-AVC
 

Вложения

  • 15,9 KB Просмотры: 0
    Личеров 0
    Сидеров 0
    Файлов 4
    Объем 5,8 GB

Привет!

Мы группа людей которые решили помочь другим в решении их проблем, а так же пользователям с поиском самых свежих и качественных инфопродуктов. За 4 с небольшим месяца мы создали этот форум на который заходят ежедневно тысячи человек и посещаемость постоянно растёт. Мы создали панель лицензирования для защиты PHP скриптов от воровства и SEO панель для мониторинга наших сайтов и выбора верной стратегии их развития. Мы надеемся что то что мы создали пригодится Вам и возможно Вы поможете нам развиваться и совершенствоваться вместе с Вами.

Статистика форума

Темы
406.640
Сообщения
465.116
Пользователи
84.573
Новый пользователь
sobolsm

Приложения форума для iOS и Android


У ркн там нет власти ;)
Приватные разговоры
Помощь Пользователи
    Вы не присоединились ни к одной комнате.