За последнюю неделю опубликовано 57 новых материалов.
Инструкция новичку Путеводитель по форуму Прокси для Telegram Показать подсказки , это бомба!

Скачать Билли / Billy Boy (2017) WEB-DL 1080p от ExKinoRay | HDRezka Studio бесплатно через торрент

  • Поучаствуй (в качестве покупателя) в любых пяти совместных покупках (кроме завершённых и "Моментальных") и получи группу "Новичок" навсегда -> ссылка на раздел
  • Получай до 480 рублей за каждого приглашенного пользователя!
    представляем Вам очередное расширение партнерской программы, подробности описаны тут -> ссылка
  • 90% материалов доступно к скачиванию после простой регистрации!
    Если же ты хочешь скачивать материалы без требования оставлять отзывы то получи группу "Новичок", 10 способов повышения описаны тут -> ссылка
  • К сожалению количество битых ссылок растет и мы уже не можем их оперативно восстанавливать поэтому просим помощи у каждого нашего пользователя.
    С сегодняшнего дня, за каждую восстановленную ссылку мы заплатим Вам.
    Подробнее тут -> ссылка
  • Перенесем твои заслуги с другого ресурса!
    Мы понимаем как сложно прокачивать аккаунты на форумах, вроде раскачал аккаунт, а тут появляется ресурс в 100 раз круче но тоже с системой прокачки и снова качать аккаунт...
    Предлагаем вам перенести Ваши заслуги на другом подобном ресурсе к нам.
    Подробности описаны тут -> ссылка
  • Вы можете получать по 2.5% с каждой покупки и продажи на маркете! Подробности в теме Партнёрская программа
Если Вы не хотите скачивать, Вы всегда можетепосмотретьонлайн, просто нажмите кнопку ниже :

Открыть плеер

Torrent_Bot

Торрент-Бот
Бот форума
4 Окт 2016
92
160
20





Название: Билли
Оригинальное название: Billy Boy
Год выпуска: 2017
Жанр:Триллер, драма, криминал
Режиссер: Брэдли Букер
В ролях: Мелисса Бенойст, Арамис Найт, Блейк Дженнер, Джим Бивер, Грег Джерманн, Андре Ройо, Ник Эверсман, Мелисса Болона, Грант Уитни Харви, Бренда Бакки

Описание:Билли Форсетти, выросший в бедной семье, — отчаянный и агрессивный подросток, с которым трудно найти общий язык. Но всю его никчемную жизнь скрашивает Майки, научивший героя воровству, угону машин и другим незаконным способам зарабатывания денег. Неожиданно Майки убивают, что повергает Билли в глубокое горе, но теперь и он оказывается в опасности.




Выпущено: США, Fiction Pictures, Stay Relevant Productions, Seasick Pictures
Продолжительность: 01:26:14
Перевод: Профессиональный многоголосый | HDRezka Studio
Субтитры: Английские

БЕЗ КАКОЙ-ЛИБО РЕКЛАМЫ!

Формат: MKV
Качество: WEB-DL 1080p
Видео: MPEG-4 AVC, 1920x800 (16:9), 23.976 fps, 5285 Kbps, 0.144 bit/pixel
Аудио 1: 48 kHz, AC3, 5.1, 448 Kbps | MVO | RUS |
Аудио 2: 48 kHz, E-AC3, 5.1, 640 Kbps | Оригинал | ENG |


ОтчетМедиаИнфо
General
Unique ID : 217686986400418346613577701553334352821 (0xA3C4FD1258C0A72782B9DEE119637BB5)
Complete name : C:Billy.Boy.2018.1080p.AMZN.WEB-DL.ExKinoRay.mkv
Format : Matroska
Format version : Version 2
File size : 3.92 GiB
Duration : 1 h 26 min
Overall bit rate : 6 502 kb/s
Movie name : Billy Boy 2018 from ExKinoRay
Encoded date : UTC 2020-07-27 16:51:07
Writing application : mkvmerge v5.6.0 ('Kenya Kane') built on May 27 2012 16:44:04
Writing library : libebml v1.2.3 + libmatroska v1.3.0

Video
ID : 1
Format : AVC
Format/Info : Advanced Video Codec
Format profile : [email protected]
Format settings, CABAC : Yes
Format settings, ReFrames : 4 frames
Codec ID : V_MPEG4/ISO/AVC
Duration : 1 h 26 min
Bit rate : 5 285 kb/s
Width : 1 920 pixels
Height : 800 pixels
Display aspect ratio : 2.40:1
Frame rate mode : Constant
Frame rate : 23.976 (24000/1001) FPS
Color space : YUV
Chroma subsampling : 4:2:0
Bit depth : 8 bits
Scan type : Progressive
Bits/(Pixel*Frame) : 0.144
Stream size : 3.18 GiB (81%)
Default : Yes
Forced : No
Color range : Limited
Color primaries : BT.709
Transfer characteristics : BT.709
Matrix coefficients : BT.709
Statistics Tags Issue : mkvmerge v21.0.0 ('Tardigrades Will Inherit The Earth') 64-bit 2018-06-15 07:46:08 / mkvmerge v5.6.0 ('Kenya Kane') built on May 27 2012 16:44:04 2020-07-27 16:51:07
FromStats_BitRate : 5413420
FromStats_Duration : 01:26:14.336000000
FromStats_FrameCount : 124060
FromStats_StreamSize : 3501357358

Audio #1
ID : 2
Format : AC-3
Format/Info : Audio Coding 3
Mode extension : CM (complete main)
Format settings, Endianness : Big
Codec ID : A_AC3
Duration : 1 h 26 min
Bit rate mode : Constant
Bit rate : 448 kb/s
Channel(s) : 6 channels
Channel positions : Front: L C R, Side: L R, LFE
Sampling rate : 48.0 kHz
Frame rate : 31.250 FPS (1536 spf)
Compression mode : Lossy
Stream size : 276 MiB (7%)
Title : MVO (HDRezka Studio)
Language : Russian
Default : Yes
Forced : No

Audio #2
ID : 3
Format : E-AC-3
Format/Info : Audio Coding 3
Format settings, Endianness : Big
Codec ID : A_EAC3
Duration : 1 h 26 min
Bit rate mode : Constant
Bit rate : 640 kb/s
Channel(s) : 6 channels
Channel positions : Front: L C R, Side: L R, LFE
Sampling rate : 48.0 kHz
Frame rate : 187.500 FPS (256 spf)
Compression mode : Lossy
Stream size : 395 MiB (10%)
Language : English
Default : No
Forced : No

Text
ID : 4
Format : UTF-8
Codec ID : S_TEXT/UTF8
Codec ID/Info : UTF-8 Plain Text
Title : SDH
Language : English
Default : No
Forced : No







Релиз от:

Автор релиза:
 

Вложения

  • 20,6 KB Просмотры: 0
    Личеров 0
    Сидеров 0
    Файлов 1
    Объем 3,9 GB

Привет!

Мы группа людей которые решили помочь другим в решении их проблем, а так же пользователям с поиском самых свежих и качественных инфопродуктов. За 4 с небольшим месяца мы создали этот форум на который заходят ежедневно тысячи человек и посещаемость постоянно растёт. Мы создали панель лицензирования для защиты PHP скриптов от воровства и SEO панель для мониторинга наших сайтов и выбора верной стратегии их развития. Мы надеемся что то что мы создали пригодится Вам и возможно Вы поможете нам развиваться и совершенствоваться вместе с Вами.

Статистика форума

Темы
406.651
Сообщения
465.097
Пользователи
84.642
Новый пользователь
margaret5910

Приложения форума для iOS и Android


У ркн там нет власти ;)
Приватные разговоры
Помощь Пользователи
    Вы не присоединились ни к одной комнате.