За последнюю неделю опубликовано 52 новых материалов.
Инструкция новичку Путеводитель по форуму Прокси для Telegram Показать подсказки , это бомба!

Скачать Без лица / Face/Off (1997) BDRip-HEVC 1080p от HEVC-CLUB | D бесплатно через торрент

  • Поучаствуй (в качестве покупателя) в любых пяти совместных покупках (кроме завершённых и "Моментальных") и получи группу "Новичок" навсегда -> ссылка на раздел
  • Получай до 480 рублей за каждого приглашенного пользователя!
    представляем Вам очередное расширение партнерской программы, подробности описаны тут -> ссылка
  • 90% материалов доступно к скачиванию после простой регистрации!
    Если же ты хочешь скачивать материалы без требования оставлять отзывы то получи группу "Новичок", 10 способов повышения описаны тут -> ссылка
  • К сожалению количество битых ссылок растет и мы уже не можем их оперативно восстанавливать поэтому просим помощи у каждого нашего пользователя.
    С сегодняшнего дня, за каждую восстановленную ссылку мы заплатим Вам.
    Подробнее тут -> ссылка
  • Перенесем твои заслуги с другого ресурса!
    Мы понимаем как сложно прокачивать аккаунты на форумах, вроде раскачал аккаунт, а тут появляется ресурс в 100 раз круче но тоже с системой прокачки и снова качать аккаунт...
    Предлагаем вам перенести Ваши заслуги на другом подобном ресурсе к нам.
    Подробности описаны тут -> ссылка
  • Вы можете получать по 2.5% с каждой покупки и продажи на маркете! Подробности в теме Партнёрская программа
Если Вы не хотите скачивать, Вы всегда можетепосмотретьонлайн, просто нажмите кнопку ниже :

Открыть плеер

Torrent_Bot

Торрент-Бот
Бот форума
4 Окт 2016
93
160
20


Информация о фильме
Название: Без лица
Оригинальное название: Face/Off
Год выхода: 1997
Жанр: Боевик, триллер, криминал
Режиссер: Джон Ву
В ролях: Джон Траволта, Николас Кейдж, Джоан Аллен, Алессандро Нивола, Джина Гершон, Доминик Суэйн, Ник Кассаветис, Харви Преснелл, Колм Фиор, Джон Кэрролл Линч, Си Си Эйч Паундер, Роберт Уиздом, Маргарет Чо, Джеймс Дентон, Мэтт Росс, Кристофер Бауэр, Майлс Джеффри, Дэвид МакКерли, Томас Джейн, Томми Флэнаган, Дэна Смит, Роми Уиндсор, Пол Хипп, Кирк Балц, Лорен Синклэр, Бен Рид, Лиза Бойл, Линда Хоффман, Дэнни Мастерсон, отец Майкл Роча, Меган Пол, Майк Уэрб, Том Рейнольдс, Стив Хитнер, Кармен Томас, Джон Блум, Уолтер Скотт, Брук Лесли, Кэм Брэйнэрд, Дэвид Уоршофски, Джон Найдлингер, Норм Комптон

О фильме:
Чтобы отомстить за жестокое убийство своего сына, агент ФБР Шон Арчер соглашается на сложную хирургическую операцию. Он берет себе новое лицо, лицо террориста Кастора Троя, который находится в коме. Однако происходит непредвиденное: Трой приходит в себя и исчезает в обличьи Арчера. Жизнь Шона превращается в настоящий кошмар — ему приходится сражаться не только за свою жизнь, но и за жизнь своей жены и дочери...



Страна: США
Студия: Douglas/Reuther Productions, Paramount Pictures, Touchstone Pictures, WCG Entertainment Productions
Продолжительность: 02:19:02
Перевод: Дублированный

Файл
Кодек: HEVC x265 10 bit
Качество: BDRip-HEVC 1080p
Видео: 1920x816, 9625 Кбит/сек, 0.256 бит/(Пиксели*Кадры), 23,976 кадр/сек, HEVC ([email protected]@High) 10 бит
Звук:
1. Русский, AC3, 640 Кбит/сек, 5.1, 48,0 КГц - Дубляж
2. Английский, AC3, 640 Кбит/сек, 5.1, 48,0 КГц - Оригинал
Субтитры: Русские (полные, форсированные), английские

Mediainfo
x265 [info]: frame I: 2557, Avg QP:17.86 kb/s: 26252.67
x265 [info]: frame P: 42102, Avg QP:19.23 kb/s: 18560.11
x265 [info]: frame B: 155214, Avg QP:21.45 kb/s: 6927.07
x265 [info]: Weighted P-Frames: Y:10.2% UV:7.3%
x265 [info]: Weighted B-Frames: Y:7.4% UV:4.3%
x265 [info]: consecutive B-frames: 9.5% 4.3% 8.5% 31.1% 7.3% 34.9% 2.1% 1.9% 0.2% 0.1% 0.1%

encoded 199873 frames in 437335.24s (0.46 fps), 9624.73 kb/s, Avg QP:20.94

Формат : Matroska
Версия формата : Version 4
Размер файла : 10,6 Гбайт
Продолжительность : 2 ч. 19 м.
Общий поток : 10,9 Мбит/сек
Название фильма : by Spartanec
Дата кодирования : UTC 2020-08-15 18:26:29
Программа кодирования : mkvmerge v7.0.0 ('Where We Going') 64bit built on Jun 9 2014 15:16:27
Библиотека кодирования : libebml v1.3.0 + libmatroska v1.4.1
Обложка : Yes
Attachments : cover.jpg

Видео
Идентификатор : 1
Формат : HEVC
Формат/Информация : High Efficiency Video Coding
Профиль формата : Main [email protected]@High
Идентификатор кодека : V_MPEGH/ISO/HEVC
Продолжительность : 2 ч. 18 м.
Битрейт : 9625 Кбит/сек
Ширина : 1920 пикселей
Высота : 816 пикселей
Соотношение сторон : 2,35:1
Режим частоты кадров : Постоянный
Частота кадров : 23,976 (23976/1000) кадра/сек
Частота кадров в оригинале : 23,976 (24000/1001) кадра/сек
Цветовое пространство : YUV
Субдискретизация насыщенности : 4:2:0
Битовая глубина : 10 бит
Бит/(Пиксели*Кадры) : 0.256
Размер потока : 9,34 Гбайт (88%)
Заголовок : Spartanec
Библиотека кодирования : x265 3.4+1-7b120308dc64:[Windows][GCC 10.1.0][64 bit] 10bit
Настройки программы : cpuid=1111039 / frame-threads=4 / numa-pools=16 / wpp / no-pmode / no-pme / no-psnr / no-ssim / log-level=2 / input-csp=1 / input-res=1920x816 / interlace=0 / total-frames=199873 / level-idc=41 / high-tier=1 / uhd-bd=0 / ref=5 / no-allow-non-conformance / no-repeat-headers / annexb / no-aud / no-hrd / info / hash=0 / no-temporal-layers / open-gop / min-keyint=23 / keyint=240 / gop-lookahead=0 / bframes=10 / b-adapt=2 / b-pyramid / bframe-bias=0 / rc-lookahead=60 / lookahead-slices=1 / scenecut=40 / hist-scenecut=0 / radl=0 / no-splice / no-intra-refresh / ctu=32 / min-cu-size=8 / rect / amp / max-tu-size=32 / tu-inter-depth=4 / tu-intra-depth=4 / limit-tu=1 / rdoq-level=1 / dynamic-rd=0.00 / no-ssim-rd / signhide / no-tskip / nr-intra=0 / nr-inter=0 / no-constrained-intra / no-strong-intra-smoothing / max-merge=5 / limit-refs=0 / no-limit-modes / me=3 / subme=7 / merange=57 / temporal-mvp / no-frame-dup / no-hme / weightp / weightb / no-analyze-src-pics / deblock=-2:-2 / no-sao / no-sao-non-deblock / rd=6 / selective-sao=0 / no-early-skip / no-rskip / no-fast-intra / no-tskip-fast / no-cu-lossless / b-intra / no-splitrd-skip / rdpenalty=0 / psy-rd=2.00 / psy-rdoq=1.00 / no-rd-refine / no-lossless / cbqpoffs=0 / crqpoffs=0 / rc=crf / crf=20.5 / qcomp=0.70 / qpstep=4 / stats-write=0 / stats-read=0 / vbv-maxrate=50000 / vbv-bufsize=50000 / vbv-init=0.9 / crf-max=0.0 / crf-min=0.0 / ipratio=1.40 / pbratio=1.30 / aq-mode=2 / aq-strength=1.00 / no-cutree / zone-count=0 / no-strict-cbr / qg-size=32 / no-rc-grain / qpmax=69 / qpmin=0 / no-const-vbv / sar=1 / overscan=0 / videoformat=5 / range=0 / colorprim=1 / transfer=1 / colormatrix=1 / chromaloc=0 / display-window=0 / cll=0,0 / min-luma=0 / max-luma=1023 / log2-max-poc-lsb=8 / vui-timing-info / vui-hrd-info / slices=1 / no-opt-qp-pps / no-opt-ref-list-length-pps / no-multi-pass-opt-rps / scenecut-bias=0.05 / hist-threshold=0.01 / no-opt-cu-delta-qp / no-aq-motion / no-hdr10 / no-hdr10-opt / no-dhdr10-opt / no-idr-recovery-sei / analysis-reuse-level=0 / analysis-save-reuse-level=0 / analysis-load-reuse-level=0 / scale-factor=0 / refine-intra=0 / refine-inter=0 / refine-mv=0 / refine-ctu-distortion=0 / no-limit-sao / ctu-info=0 / no-lowpass-dct / refine-analysis-type=0 / copy-pic=1 / max-ausize-factor=1.0 / no-dynamic-refine / no-single-sei / no-hevc-aq / no-svt / no-field / qp-adaptation-range=1.00 / no-scenecut-aware-qpconformance-window-offsets / right=0 / bottom=0 / decoder-max-rate=0
Язык : English
Default : Да
Forced : Нет
Цветовой диапазон : Limited
Основные цвета : BT.709
Характеристики трансфера : BT.709
Коэффициенты матрицы : BT.709

Аудио #1
Идентификатор : 2
Формат : AC-3
Формат/Информация : Audio Coding 3
Коммерческое название : Dolby Digital
Идентификатор кодека : A_AC3
Продолжительность : 2 ч. 19 м.
Вид битрейта : Постоянный
Битрейт : 640 Кбит/сек
Каналы : 6 каналов
ChannelLayout : L R C LFE Ls Rs
Частота : 48,0 КГц
Частота кадров : 31,250 кадров/сек (1536 SPF)
Битовая глубина : 16 бит
Метод сжатия : С потерями
Размер потока : 636 Мбайт (6%)
Заголовок : Дубляж
Язык : Russian
ServiceKind/ : Complete Main
Default : Да
Forced : Нет

Аудио #2
Идентификатор : 3
Формат : AC-3
Формат/Информация : Audio Coding 3
Коммерческое название : Dolby Digital
Идентификатор кодека : A_AC3
Продолжительность : 2 ч. 18 м.
Вид битрейта : Постоянный
Битрейт : 640 Кбит/сек
Каналы : 6 каналов
ChannelLayout : L R C LFE Ls Rs
Частота : 48,0 КГц
Частота кадров : 31,250 кадров/сек (1536 SPF)
Битовая глубина : 16 бит
Метод сжатия : С потерями
Размер потока : 636 Мбайт (6%)
Заголовок : Оригинал
Язык : English
ServiceKind/ : Complete Main
Default : Нет
Forced : Нет

Текст #1
Идентификатор : 4
Формат : UTF-8
Идентификатор кодека : S_TEXT/UTF8
Идентификатор кодека/Информация : UTF-8 Plain Text
Продолжительность : 44 м. 23 с.
Битрейт : 0 бит/сек
ElementCount : 6
Размер потока : 188 байт (0%)
Заголовок : Forced
Язык : Russian
Default : Да
Forced : Да

Текст #2
Идентификатор : 5
Формат : UTF-8
Идентификатор кодека : S_TEXT/UTF8
Идентификатор кодека/Информация : UTF-8 Plain Text
Продолжительность : 2 ч. 12 м.
Битрейт : 55 бит/сек
ElementCount : 1032
Размер потока : 54,1 Кбайт (0%)
Заголовок : Full
Язык : Russian
Default : Нет
Forced : Нет

Текст #3
Идентификатор : 6
Формат : UTF-8
Идентификатор кодека : S_TEXT/UTF8
Идентификатор кодека/Информация : UTF-8 Plain Text
Продолжительность : 2 ч. 10 м.
Битрейт : 38 бит/сек
ElementCount : 1065
Размер потока : 37,2 Кбайт (0%)
Заголовок : Full
Язык : English
Default : Нет
Forced : Нет

Меню
00:00:00.000 : :Black Bag Operation
00:03:02.724 : :The Merry-Go-Round
00:13:28.849 : :Six Years Later: Sinclaire Is Hot
00:32:32.909 : :Castor and Pollux
00:38:56.083 : :Southern California International Airport: A Game of Chicken
00:51:04.311 : :Ready for the Big Ride
01:08:13.464 : :The Archer Home, "I got him Eve."
01:42:28.892 : :A Visit From Special Ops: Sinclaire Revealed
01:56:12.715 : :The Walsh Institute
02:14:18.842 : :Failed Interrogations
02:18:56.119 : :Suicide Mission
Скриншоты

Релиз от: Spartanec
 

Вложения

  • 27,5 KB Просмотры: 0
    Личеров 0
    Сидеров 0
    Файлов 1
    Объем 10,6 GB

Привет!

Мы группа людей которые решили помочь другим в решении их проблем, а так же пользователям с поиском самых свежих и качественных инфопродуктов. За 4 с небольшим месяца мы создали этот форум на который заходят ежедневно тысячи человек и посещаемость постоянно растёт. Мы создали панель лицензирования для защиты PHP скриптов от воровства и SEO панель для мониторинга наших сайтов и выбора верной стратегии их развития. Мы надеемся что то что мы создали пригодится Вам и возможно Вы поможете нам развиваться и совершенствоваться вместе с Вами.

Статистика форума

Темы
406.648
Сообщения
465.115
Пользователи
84.620
Новый пользователь
Pestone79

Приложения форума для iOS и Android


У ркн там нет власти ;)
Приватные разговоры
Помощь Пользователи
    Вы не присоединились ни к одной комнате.