За последнюю неделю опубликовано 59 новых материалов.
Инструкция новичку Путеводитель по форуму Прокси для Telegram Показать подсказки , это бомба!

Скачать Бестселлер / Best Seller (1987) BDRip 720p | P, P2, A бесплатно через торрент

  • Поучаствуй (в качестве покупателя) в любых пяти совместных покупках (кроме завершённых и "Моментальных") и получи группу "Новичок" навсегда -> ссылка на раздел
  • Получай до 480 рублей за каждого приглашенного пользователя!
    представляем Вам очередное расширение партнерской программы, подробности описаны тут -> ссылка
  • 90% материалов доступно к скачиванию после простой регистрации!
    Если же ты хочешь скачивать материалы без требования оставлять отзывы то получи группу "Новичок", 10 способов повышения описаны тут -> ссылка
  • К сожалению количество битых ссылок растет и мы уже не можем их оперативно восстанавливать поэтому просим помощи у каждого нашего пользователя.
    С сегодняшнего дня, за каждую восстановленную ссылку мы заплатим Вам.
    Подробнее тут -> ссылка
  • Перенесем твои заслуги с другого ресурса!
    Мы понимаем как сложно прокачивать аккаунты на форумах, вроде раскачал аккаунт, а тут появляется ресурс в 100 раз круче но тоже с системой прокачки и снова качать аккаунт...
    Предлагаем вам перенести Ваши заслуги на другом подобном ресурсе к нам.
    Подробности описаны тут -> ссылка
  • Вы можете получать по 2.5% с каждой покупки и продажи на маркете! Подробности в теме Партнёрская программа
Если Вы не хотите скачивать, Вы всегда можетепосмотретьонлайн, просто нажмите кнопку ниже :

Открыть плеер

Torrent_Bot

Торрент-Бот
Бот форума
4 Окт 2016
92
163
20








Информация о фильме
Название: Бестселлер
Оригинальное название: Best Seller
Год выхода: 1987
Жанр: Триллер, драма
Режиссер: Джон Флинн
В ролях: Джеймс Вудс, Брайан Деннехи, Виктория Теннант, Эллисон Бэлсон, Пол Шенар, Джордж Коу, Энн Питоняк, Мэри Карвер, Салли Бойар, Кэтлин Ллойд


О фильме:
Деннис - бывший полицейский, получивший известность как автор детективных романов. Клив - профессиональный убийца, преступления которого помогли его боссу создать целую финансовую империю. Клив подозревает, что босс распорядился его «убрать», и для того, чтобы выжить и отомстить готов раскрыть все подробности совершенных им преступлений писателю - полицейскому. Деннису этот материал позволит создать новый бестселлер. Но когда работа над книгой близиться к завершению, начинают погибать свидетели. Приступая к написанию будущего бестселлера, Деннис не мог и подозревать, какой опасности он подвергает жизнь своей любовницы и редактора Роберты и дочери Холли…





Страна: США
Продолжительность: 01:31:15
Перевод: Профессиональный/ двухголосый / Авторский
Субтитры: Нет


Файл
Качество: BDRip 720p
Видео: AVC, 1280x692, 23.976 fps, ~5500 Kbps
Аудио№1: Russian: 48 kHz, АС3, 2 ch, 192 kbps [многоголосый, Петербург 5-й канал]
Аудио№2: Russian: 48 kHz, АС3, 2 ch, 192 kbps [двухголосый, НТВ+]
Аудио№3: Russian: 48 kHz, АС3, 2 ch, 192 kbps [Авторский (одноголосый, закадровый)]
Аудио№4: English: 48 kHz, АС3, 2 ch, 192 kbps [оригинал]







M/I
General
Unique ID : 242521358316982395487166661105021581348 (0xB673EA241E29CF8FDE22863BC0CB7824)
Complete name : E:КиноБестселлер.(1987).BLU-RAY.720p.[-=DoMiNo=-].mkv
Format : Matroska
Format version : Version 4 / Version 2
File size : 4.19 GiB
Duration : 1h 35mn
Overall bit rate : 6 279 Kbps
Movie name : Бестселлер
Writing application : XviD4PSP 7.0.177
Writing library : Lavf56.25.101
ORIGINAL_TITLE : Best Seller
DATE : 1987
GENRE : боевик, триллер, драма, криминал
ENCODING_INFO : BluRay > MKV 720p / H264 > X264 VBR-2P 5500kbps Custom / AC3 > AC3 CBR 192kbps / AC3 > AC3 CBR 192kbps / AC3 > AC3 CBR 192kbps / DTS-HD MA > AC3 CBR 192kbps
DEION : Деннис — бывший полицейский, получивший известность как автор детективных романов. Клив — профессиональный убийца, преступления которого помогли его боссу создать целую финансовую империю.Клив подозревает, что босс распорядился его «убрать», и для того, чтобы выжить и отомстить готов раскрыть все подробности совершенных им преступлений писателю — полицейскому. Деннису этот материал позволит создать новый бестселлер. Но когда работа над книгой близиться к завершению, начинают погибать свидетели.Приступая к написанию будущего бестселлера, Деннис не мог и подозревать, какой опасности он подвергает жизнь своей любовницы и редактора Роберты и дочери Холли…
SYNOPSIS : Деннис — бывший полицейский, получивший известность как автор детективных романов. Клив — профессиональный убийца, преступления которого помогли его боссу создать целую финансовую империю.Клив подозревает, что босс распорядился его «убрать», и для того, чтобы выжить и отомстить готов раскрыть все подробности совершенных им преступлений писателю — полицейскому. Деннису этот материал позволит создать новый бестселлер. Но когда работа над книгой близиться к завершению, начинают погибать свидетели.Приступая к написанию будущего бестселлера, Деннис не мог и подозревать, какой опасности он подвергает жизнь своей любовницы и редактора Роберты и дочери Холли…
ITUNEXTC : mpaa|R|400|
ACTORS : Джеймс Вудс, Брайан Деннехи, Виктория Теннант, Эллисон Бэлсон, Пол Шенар, Джордж Коу, Энн Питониак, Мэри Карвер, Салли Бойар, Кэтлин Ллойд, показать всех
DIRECTOR : Джон Флинн
PRODUCER : Джон Дэйли, Картер Де, Дерек Гибсон
WRITER : Ларри Коэн
COUNTRY : США
RATING : 6.833
IMDB_RATING : 6.50
Language : und
FILENAME : thumbnail.png
Attachements : cover.png / fanart.png / thumbnail.png

Video
ID : 1
Format : AVC
Format/Info : Advanced Video Codec
Format profile : [email protected]
Format settings, CABAC : Yes
Format settings, ReFrames : 8 frames
Codec ID : V_MPEG4/ISO/AVC
Duration : 1h 35mn
Bit rate : 5 500 Kbps
Width : 1 280 pixels
Height : 692 pixels
Display aspect ratio : 1.85:1
Frame rate mode : Constant
Frame rate : 23.976 fps
Color space : YUV
Chroma subsampling : 4:2:0
Bit depth : 8 bits
Scan type : Progressive
Bits/(Pixel*Frame) : 0.259
Stream size : 3.59 GiB (86%)
Writing library : x264 core 148 r2597M e86f3a1
Encoding settings : cabac=1 / ref=8 / deblock=1:-3:-3 / analyse=0x3:0x133 / me=umh / subme=11 / psy=1 / psy_rd=1.00:0.20 / mixed_ref=1 / me_range=32 / chroma_me=1 / trellis=2 / 8x8dct=1 / cqm=0 / deadzone=21,11 / fast_pskip=0 / chroma_qp_offset=-3 / threads=5 / lookahead_threads=1 / sliced_threads=0 / nr=0 / decimate=1 / interlaced=0 / bluray_compat=0 / constrained_intra=0 / bframes=10 / b_pyramid=2 / b_adapt=2 / b_bias=0 / direct=3 / weightb=1 / open_gop=0 / weightp=2 / keyint=230 / keyint_min=23 / scenecut=40 / intra_refresh=0 / rc=2pass / mbtree=0 / bitrate=5500 / ratetol=1.0 / qcomp=0.60 / qpmin=0 / qpmax=69 / qpstep=4 / cplxblur=20.0 / qblur=0.5 / ip_ratio=1.40 / pb_ratio=1.30 / aq=1:1.00
Default : Yes
Forced : No

Audio #1
ID : 2
Format : AC-3
Format/Info : Audio Coding 3
Mode extension : CM (complete main)
Format settings, Endianness : Big
Codec ID : A_AC3
Duration : 1h 35mn
Bit rate mode : Constant
Bit rate : 192 Kbps
Channel(s) : 2 channels
Channel positions : Front: L R
Sampling rate : 48.0 KHz
Bit depth : 32 bits
Compression mode : Lossy
Delay relative to video : 27ms
Stream size : 131 MiB (3%)
Title : многоголосый, Петербург 5-й канал
Language : Russian
Default : Yes
Forced : No

Audio #2
ID : 3
Format : AC-3
Format/Info : Audio Coding 3
Mode extension : CM (complete main)
Format settings, Endianness : Big
Codec ID : A_AC3
Duration : 1h 35mn
Bit rate mode : Constant
Bit rate : 192 Kbps
Channel(s) : 2 channels
Channel positions : Front: L R
Sampling rate : 48.0 KHz
Bit depth : 32 bits
Compression mode : Lossy
Delay relative to video : 27ms
Stream size : 131 MiB (3%)
Title : двухголосый, НТВ+
Language : Russian
Default : No
Forced : No

Audio #3
ID : 4
Format : AC-3
Format/Info : Audio Coding 3
Mode extension : CM (complete main)
Format settings, Endianness : Big
Codec ID : A_AC3
Duration : 1h 35mn
Bit rate mode : Constant
Bit rate : 192 Kbps
Channel(s) : 2 channels
Channel positions : Front: L R
Sampling rate : 48.0 KHz
Bit depth : 32 bits
Compression mode : Lossy
Delay relative to video : 27ms
Stream size : 131 MiB (3%)
Title : одноголосый
Language : Russian
Default : No
Forced : No

Audio #4
ID : 5
Format : AC-3
Format/Info : Audio Coding 3
Mode extension : CM (complete main)
Format settings, Endianness : Big
Codec ID : A_AC3
Duration : 1h 35mn
Bit rate mode : Constant
Bit rate : 192 Kbps
Channel(s) : 2 channels
Channel positions : Front: L R
Sampling rate : 48.0 KHz
Bit depth : 32 bits
Compression mode : Lossy
Delay relative to video : 27ms
Stream size : 131 MiB (3%)
Title : English
Language : English
Default : No
Forced : No

Menu
00:00:00.000 : :Глава 1



 

Вложения

  • 11,5 KB Просмотры: 0
    Личеров 0
    Сидеров 0
    Файлов 1
    Объем 4,2 GB

Привет!

Мы группа людей которые решили помочь другим в решении их проблем, а так же пользователям с поиском самых свежих и качественных инфопродуктов. За 4 с небольшим месяца мы создали этот форум на который заходят ежедневно тысячи человек и посещаемость постоянно растёт. Мы создали панель лицензирования для защиты PHP скриптов от воровства и SEO панель для мониторинга наших сайтов и выбора верной стратегии их развития. Мы надеемся что то что мы создали пригодится Вам и возможно Вы поможете нам развиваться и совершенствоваться вместе с Вами.

Статистика форума

Темы
406.678
Сообщения
465.125
Пользователи
84.737
Новый пользователь
Mo0dak

Приложения форума для iOS и Android


У ркн там нет власти ;)
Приватные разговоры
Помощь Пользователи
    Вы не присоединились ни к одной комнате.