За последнюю неделю опубликовано 30 новых материалов.
Инструкция новичку Путеводитель по форуму Прокси для Telegram Показать подсказки , это бомба!

Скачать Бесстрашная гиена / Xiao quan guai zhao / The Fearless Hyena (1979) BDRemux 1080р | P2, P1, A бесплатно через торрент

  • Поучаствуй (в качестве покупателя) в любых пяти совместных покупках (кроме завершённых и "Моментальных") и получи группу "Новичок" навсегда -> ссылка на раздел
  • Получай до 480 рублей за каждого приглашенного пользователя!
    представляем Вам очередное расширение партнерской программы, подробности описаны тут -> ссылка
  • 90% материалов доступно к скачиванию после простой регистрации!
    Если же ты хочешь скачивать материалы без требования оставлять отзывы то получи группу "Новичок", 10 способов повышения описаны тут -> ссылка
  • К сожалению количество битых ссылок растет и мы уже не можем их оперативно восстанавливать поэтому просим помощи у каждого нашего пользователя.
    С сегодняшнего дня, за каждую восстановленную ссылку мы заплатим Вам.
    Подробнее тут -> ссылка
  • Перенесем твои заслуги с другого ресурса!
    Мы понимаем как сложно прокачивать аккаунты на форумах, вроде раскачал аккаунт, а тут появляется ресурс в 100 раз круче но тоже с системой прокачки и снова качать аккаунт...
    Предлагаем вам перенести Ваши заслуги на другом подобном ресурсе к нам.
    Подробности описаны тут -> ссылка
  • Вы можете получать по 2.5% с каждой покупки и продажи на маркете! Подробности в теме Партнёрская программа
Если Вы не хотите скачивать, Вы всегда можетепосмотретьонлайн, просто нажмите кнопку ниже :

Открыть плеер

Torrent_Bot

Торрент-Бот
Бот форума
4 Окт 2016
93
160
20



Информация о фильме
Название: Бесстрашная гиена
Оригинальное название: Xiao quan guai zhao / The Fearless Hyena
Год выхода: 1979
Жанр: боевик, комедия
Режиссер: Джеки Чан
В ролях: Джеки Чан, Джеймс Тьен, Дин Шек, Хуи Лу Чен, Сай-Кун Ям, Куин Ли, Тин-чи Ченг, Чи-пинг Чанг, Шао Хуа Чу, Эгил Ан, Синг Нан Хо, Хонг Хсю, Кан-ман Хунг, Сай Ю Чин, Най-ху Ку, Чунг Ма, Кенг Пенг, Йао Ванг, Ван Ли Пэнг, Чи Шенг Ванг

Описание: На глазах юноши Ланга убийцы расправляются с любимым дедом, в прошлом знаменитым бойцом. Под руководством старого учителя Ланг обучается искусству борьбы, чтобы отомстить бандитам.



Страна: Гонконг, Южная Корея
Продолжительность: 01:37:47
Перевод: профессиональный (двухголосый закадровый) ДТВ / СТС
профессиональный (одноголосый закадровый) ТВ6
авторский (одноголосый закадровый) Сергей Визгунов

Файл
Качество: BDRemux 1080р
Видео: MPEG-4 AVC, 28 Мбит/с, 1920x1080, 23.976 кадр/с
Аудио 1: Russian; AC3; 48.0 KHz; 2ch; 192 Kbps || ДТВ / СТС
Аудио 2: Russian; AC3; 48.0 KHz; 2ch; 192 Kbps || ТВ6
Аудио 3: Russian; AC3; 48.0 KHz; 2ch; 192 Kbps || Сергей Визгунов
Аудио 4: Chinese; DTS-HD MA; 48.0 KHz; 1ch; 850 Kbps || Original Cantonese Mono
Аудио 5: Chinese; DTS; 48.0 KHz; 1ch; 768 Kbps || Alternate Cantonese Mono with Japanese "Crazy Monkey" Music Cues
Аудио 6: English; DTS-HD MA; 48.0 KHz; 1ch; 837 Kbps || Original English mono Dub
Аудио 7: English; DTS-HD MA; 48.0 KHz; 6ch; 3822 Kbps || English 5.1 mix
Аудио 8: English; AC3; 48.0 KHz; 2ch; 224 Kbps || Audio Commentary by Hong Kong cinema experts Mike Leeder and Arne Venema
Субтитры: английские (SDH)

Скриншоты
MediaInfo
General
Unique ID : 197994515387433386996271422924943720765 (0x94F45B4A327D033CD24D1D6A087B013D)
Complete name : E:Мои рипыБесстрашная гиена.1979.BDRemux.1080p.R.G. Goldenshara.mkv
Format : Matroska
Format version : Version 4
File size : 24.0 GiB
Duration : 1 h 37 min
Overall bit rate mode : Variable
Overall bit rate : 35.1 Mb/s
Encoded date : UTC 2020-08-20 15:54:42
Writing application : mkvmerge v46.0.0 ('No Deeper Escape') 64-bit
Writing library : libebml v1.3.10 + libmatroska v1.5.2

Video
ID : 1
ID in the original source m : 4113 (0x1011)
Format : AVC
Format/Info : Advanced Video Codec
Format profile : [email protected]
Format settings : CABAC / 4 Ref Frames
Format settings, CABAC : Yes
Format settings, Reference : 4 frames
Codec ID : V_MPEG4/ISO/AVC
Duration : 1 h 37 min
Bit rate mode : Variable
Bit rate : 28.0 Mb/s
Maximum bit rate : 30.0 Mb/s
Width : 1 920 pixels
Height : 1 080 pixels
Display aspect ratio : 16:9
Frame rate mode : Constant
Frame rate : 23.976 (24000/1001) FPS
Color space : YUV
Chroma subsampling : 4:2:0
Bit depth : 8 bits
Scan type : Progressive
Bits/(Pixel*Frame) : 0.563
Stream size : 19.1 GiB (80%)
Language : Chinese
Default : Yes
Forced : No
Color range : Limited
Color primaries : BT.709
Transfer characteristics : BT.709
Matrix coefficients : BT.709
Original source medium : Blu-ray

Audio #1
ID : 2
Format : AC-3
Format/Info : Audio Coding 3
Commercial name : Dolby Digital
Codec ID : A_AC3
Duration : 1 h 37 min
Bit rate mode : Constant
Bit rate : 192 kb/s
Channel(s) : 2 channels
Channel layout : L R
Sampling rate : 48.0 kHz
Frame rate : 31.250 FPS (1536 SPF)
Compression mode : Lossy
Delay relative to video : 6 ms
Stream size : 134 MiB (1%)
Title : Двухголосый (ДТВ / СТС)
Language : Russian
Service kind : Complete Main
Default : Yes
Forced : No

Audio #2
ID : 3
Format : AC-3
Format/Info : Audio Coding 3
Commercial name : Dolby Digital
Codec ID : A_AC3
Duration : 1 h 37 min
Bit rate mode : Constant
Bit rate : 192 kb/s
Channel(s) : 2 channels
Channel layout : L R
Sampling rate : 48.0 kHz
Frame rate : 31.250 FPS (1536 SPF)
Compression mode : Lossy
Delay relative to video : 6 ms
Stream size : 134 MiB (1%)
Title : Одноголосый (ТВ-6)
Language : Russian
Service kind : Complete Main
Default : No
Forced : No

Audio #3
ID : 4
Format : AC-3
Format/Info : Audio Coding 3
Commercial name : Dolby Digital
Codec ID : A_AC3
Duration : 1 h 37 min
Bit rate mode : Constant
Bit rate : 192 kb/s
Channel(s) : 2 channels
Channel layout : L R
Sampling rate : 48.0 kHz
Frame rate : 31.250 FPS (1536 SPF)
Compression mode : Lossy
Delay relative to video : 6 ms
Stream size : 134 MiB (1%)
Title : Авторский (Сергей Визгунов)
Language : Russian
Service kind : Complete Main
Default : No
Forced : No

Audio #4
ID : 5
ID in the original source m : 4352 (0x1100)
Format : DTS XLL
Format/Info : Digital Theater Systems
Commercial name : DTS-HD Master Audio
Codec ID : A_DTS
Duration : 1 h 37 min
Bit rate mode : Variable
Bit rate : 850 kb/s
Channel(s) : 1 channel
Channel layout : C
Sampling rate : 48.0 kHz
Frame rate : 93.750 FPS (512 SPF)
Bit depth : 16 bits
Compression mode : Lossless
Stream size : 594 MiB (2%)
Language : Chinese
Default : No
Forced : No
Original source medium : Blu-ray

Audio #5
ID : 6
ID in the original source m : 4353 (0x1101)
Format : DTS
Format/Info : Digital Theater Systems
Codec ID : A_DTS
Duration : 1 h 37 min
Bit rate mode : Constant
Bit rate : 768 kb/s
Channel(s) : 1 channel
Channel layout : C
Sampling rate : 48.0 kHz
Frame rate : 93.750 FPS (512 SPF)
Bit depth : 16 bits
Compression mode : Lossy
Stream size : 537 MiB (2%)
Language : Chinese
Default : No
Forced : No
Original source medium : Blu-ray

Audio #6
ID : 7
ID in the original source m : 4354 (0x1102)
Format : DTS XLL
Format/Info : Digital Theater Systems
Commercial name : DTS-HD Master Audio
Codec ID : A_DTS
Duration : 1 h 37 min
Bit rate mode : Variable
Bit rate : 837 kb/s
Channel(s) : 1 channel
Channel layout : C
Sampling rate : 48.0 kHz
Frame rate : 93.750 FPS (512 SPF)
Bit depth : 16 bits
Compression mode : Lossless
Stream size : 585 MiB (2%)
Language : English
Default : No
Forced : No
Original source medium : Blu-ray

Audio #7
ID : 8
ID in the original source m : 4355 (0x1103)
Format : DTS XLL
Format/Info : Digital Theater Systems
Commercial name : DTS-HD Master Audio
Codec ID : A_DTS
Duration : 1 h 37 min
Bit rate mode : Variable
Bit rate : 3 822 kb/s
Channel(s) : 6 channels
Channel layout : C L R Ls Rs LFE
Sampling rate : 48.0 kHz
Frame rate : 93.750 FPS (512 SPF)
Bit depth : 24 bits
Compression mode : Lossless
Stream size : 2.61 GiB (11%)
Language : English
Default : No
Forced : No
Original source medium : Blu-ray

Audio #8
ID : 9
ID in the original source m : 4356 (0x1104)
Format : AC-3
Format/Info : Audio Coding 3
Commercial name : Dolby Digital
Codec ID : A_AC3
Duration : 1 h 37 min
Bit rate mode : Constant
Bit rate : 224 kb/s
Channel(s) : 2 channels
Channel layout : L R
Sampling rate : 48.0 kHz
Frame rate : 31.250 FPS (1536 SPF)
Compression mode : Lossy
Stream size : 157 MiB (1%)
Title : Audio Commentary by Hong Kong cinema experts Mike Leeder and Arne Venema
Language : English
Service kind : Complete Main
Default : No
Forced : No
Original source medium : Blu-ray

Text
ID : 10
Format : UTF-8
Codec ID : S_TEXT/UTF8
Codec ID/Info : UTF-8 Plain Text
Duration : 1 h 35 min
Bit rate : 60 b/s
Count of elements : 1163
Stream size : 42.6 KiB (0%)
Language : English
Default : No
Forced : No

Menu
00:00:00.000 : en:Глава 01
00:08:01.481 : en:Глава 02
00:16:27.152 : en:Глава 03
00:24:45.775 : en:Глава 04
00:31:27.010 : en:Глава 05
00:42:13.697 : en:Глава 06
00:50:44.416 : en:Глава 07
00:59:01.996 : en:Глава 08
01:08:13.464 : en:Глава 09
01:18:44.720 : en:Глава 10
01:24:55.673 : en:Глава 11
01:30:19.622 : en:Глава 12
 

Вложения

  • 60,8 KB Просмотры: 0
    Личеров 0
    Сидеров 0
    Файлов 1
    Объем 24 GB

Привет!

Мы группа людей которые решили помочь другим в решении их проблем, а так же пользователям с поиском самых свежих и качественных инфопродуктов. За 4 с небольшим месяца мы создали этот форум на который заходят ежедневно тысячи человек и посещаемость постоянно растёт. Мы создали панель лицензирования для защиты PHP скриптов от воровства и SEO панель для мониторинга наших сайтов и выбора верной стратегии их развития. Мы надеемся что то что мы создали пригодится Вам и возможно Вы поможете нам развиваться и совершенствоваться вместе с Вами.

Статистика форума

Темы
406.605
Сообщения
465.026
Пользователи
84.387
Новый пользователь
Сергей1672021

Приложения форума для iOS и Android


У ркн там нет власти ;)
Приватные разговоры
Помощь Пользователи
    Вы не присоединились ни к одной комнате.