За последнюю неделю опубликовано 29 новых материалов.
Инструкция новичку Путеводитель по форуму Прокси для Telegram Показать подсказки , это бомба!

Скачать Беспечные времена в «Риджмонт Хай» / Fast Times at Ridgemont High (1982) BDRip-AVC от ExKinoRay | P2 бесплатно через торрент

  • Поучаствуй (в качестве покупателя) в любых пяти совместных покупках (кроме завершённых и "Моментальных") и получи группу "Новичок" навсегда -> ссылка на раздел
  • Получай до 480 рублей за каждого приглашенного пользователя!
    представляем Вам очередное расширение партнерской программы, подробности описаны тут -> ссылка
  • 90% материалов доступно к скачиванию после простой регистрации!
    Если же ты хочешь скачивать материалы без требования оставлять отзывы то получи группу "Новичок", 10 способов повышения описаны тут -> ссылка
  • К сожалению количество битых ссылок растет и мы уже не можем их оперативно восстанавливать поэтому просим помощи у каждого нашего пользователя.
    С сегодняшнего дня, за каждую восстановленную ссылку мы заплатим Вам.
    Подробнее тут -> ссылка
  • Перенесем твои заслуги с другого ресурса!
    Мы понимаем как сложно прокачивать аккаунты на форумах, вроде раскачал аккаунт, а тут появляется ресурс в 100 раз круче но тоже с системой прокачки и снова качать аккаунт...
    Предлагаем вам перенести Ваши заслуги на другом подобном ресурсе к нам.
    Подробности описаны тут -> ссылка
  • Вы можете получать по 2.5% с каждой покупки и продажи на маркете! Подробности в теме Партнёрская программа
Если Вы не хотите скачивать, Вы всегда можетепосмотретьонлайн, просто нажмите кнопку ниже :

Открыть плеер

Torrent_Bot

Торрент-Бот
Бот форума
4 Окт 2016
93
155
20


Информация о фильме
Название: Беспечные времена в «Риджмонт Хай»
Оригинальное название: Fast Times at Ridgemont High
Год выхода: 1982
Жанр: Драма, мелодрама, комедия
Режиссер: Эми Хекерлинг
В ролях: Шон Пенн, Дженнифер Джейсон Ли, Джадж Рейнхолд, Роберт Романус, Брайан Бэкер, Фиби Кейтс, Рэй Уолстон, Скотт Томсон, Винсент Скиавелли, Аманда Уайсс, Дуайр Браун, Форест Уитакер, Том Нолан, Блэр Тефкин, Келли Марони, Эрик Штольц, Реджинальд Фармер, Энтони Эдвардс, Стюарт Корнфилд, Сонни Карл Дэвис, Майкл Уайл, Стю Нэхэн, Дуэйн Таккер, Мартин Брест, Дуглас Брайан Мартин, Стивен М. Мартин, Тейлор Негрон, Вирджиния Питерс, Лана Кларксон, Ава Лазар, Лори Саттон, Стэнли Дэвис-мл., Джеймс Болт, Памела Спрингстин, Том Нолан (II), Том Нолан (III)

О фильме:
«Беспечные времена в «Риджмонт Хай» — культовая молодежная комедия восьмидесятых, ставшая стартовой площадкой для будущих звезд Голливуда — Шона Пенна, Фореста Уитакера и Эрика Столца.Веселый, юмористический рассказ о группе подростков, обучающихся в школе Риджмонт Хай в Южной Калифорнии. Они вечно торчат в торговом центре, и на уме у них только секс. Они борются со взрослыми за независимость, мечтают преуспеть, пытаются решать проблемы «переходного возраста».



Страна: США
Студия: Refugee Films, Universal Pictures
Продолжительность: 01:29:38
Перевод: Профессиональный (двухголосый закадровый) НТВ+

Файл
Формат: MKV
Качество: BDRip-AVC
Видео: MPEG-4 AVC, 760x412, - 1085 Кбит/с
Аудио: AAC-HE, 2 ch, - 76 Кбит/с
Субтитры: Русские, английские

MI
Общее
Уникальный идентификатор : 70093463783653021479568902331137056229 (0x34BB8294A5AD9134388511226B8CDDE5)
Полное имя : D:MOVIESFast.times.at.Ridgemont.High.1982.BDRip-AVC.ExKinoRay.mkv
Формат : Matroska
Версия формата : Version 4
Размер файла : 745 Мбайт
Продолжительность : 1 ч. 29 м.
Общий поток : 1 163 Кбит/сек
Дата кодирования : UTC 2020-05-25 18:09:25
Программа кодирования : mkvmerge v45.0.0 ('Heaven in Pennies') 64-bit
Библиотека кодирования : libebml v1.3.10 + libmatroska v1.5.2

Видео
Идентификатор : 1
Формат : AVC
Формат/Информация : Advanced Video Codec
Профиль формата : High@L4.1
Настройки формата : CABAC / 11 Ref Frames
Параметр CABAC формата : Да
Параметр RefFrames формата : 11 кадров
Идентификатор кодека : V_MPEG4/ISO/AVC
Продолжительность : 1 ч. 29 м.
Битрейт : 1 085 Кбит/сек
Ширина : 760 пикселей
Высота : 412 пикселей
Соотношение сторон : 1,85:1
Режим частоты кадров : Постоянный
Частота кадров : 23,976 (24000/1001) кадра/сек
Цветовое пространство : YUV
Субдискретизация насыщенности : 4:2:0
Битовая глубина : 8 бит
Тип развёртки : Прогрессивная
Бит/(Пиксели*Кадры) : 0.145
Размер потока : 695 Мбайт (93%)
Библиотека кодирования : x264 core 160 r3000 33f9e14
Настройки программы : cabac=1 / ref=11 / deblock=1:-3:-3 / analyse=0x3:0x133 / me=umh / subme=10 / psy=1 / psy_rd=1.05:0.14 / mixed_ref=1 / me_range=32 / chroma_me=1 / trellis=2 / 8x8dct=1 / cqm=0 / deadzone=21,11 / fast_pskip=0 / chroma_qp_offset=-3 / threads=6 / lookahead_threads=1 / sliced_threads=0 / nr=0 / decimate=0 / interlaced=0 / bluray_compat=0 / constrained_intra=0 / bframes=12 / b_pyramid=2 / b_adapt=2 / b_bias=0 / direct=3 / weightb=1 / open_gop=0 / weightp=2 / keyint=240 / keyint_min=23 / scenecut=40 / intra_refresh=0 / rc_lookahead=40 / rc=2pass / mbtree=1 / bitrate=1085 / ratetol=1.0 / qcomp=0.60 / qpmin=0 / qpmax=69 / qpstep=4 / cplxblur=20.0 / qblur=0.5 / ip_ratio=1.40 / aq=3:1.00
Default : Да
Forced : Нет
Цветовой диапазон : Limited
Основные цвета : BT.709
Характеристики трансфера : BT.709
Коэффициенты матрицы : BT.709

Аудио
Идентификатор : 2
Формат : AAC LC SBR
Формат/Информация : Advanced Audio Codec Low Complexity with Spectral Band Replication
Коммерческое название : HE-AAC
Настройки формата : Explicit
Идентификатор кодека : A_AAC-2
Продолжительность : 1 ч. 29 м.
Битрейт : 76,0 Кбит/сек
Каналы : 2 канала
Channel layout : L R
Частота : 48,0 КГц
Частота кадров : 23,438 кадра/сек (2048 SPF)
Метод сжатия : С потерями
Задержка видео : 31 мс.
Размер потока : 48,7 Мбайт (7%)
Язык : Russian
Default : Да
Forced : Нет

Текст #1
Идентификатор : 3
Формат : UTF-8
Идентификатор кодека : S_TEXT/UTF8
Идентификатор кодека/Информация : UTF-8 Plain Text
Продолжительность : 1 ч. 25 м.
Битрейт : 113 бит/сек
Count of elements : 1042
Размер потока : 71,1 Кбайт (0%)
Язык : Russian
Default : Да
Forced : Нет

Текст #2
Идентификатор : 4
Формат : UTF-8
Идентификатор кодека : S_TEXT/UTF8
Идентификатор кодека/Информация : UTF-8 Plain Text
Продолжительность : 1 ч. 29 м.
Битрейт : 71 бит/сек
Count of elements : 1556
Размер потока : 46,7 Кбайт (0%)
Язык : English
Default : Нет
Forced : Нет

Меню
00:00:00.000 : en:00:00:00.000
00:02:09.921 : en:00:02:09.921
00:06:27.554 : en:00:06:27.554
00:16:30.323 : en:00:16:30.323
00:22:49.702 : en:00:22:49.702
00:25:43.125 : en:00:25:43.125
00:43:37.198 : en:00:43:37.198
00:45:49.789 : en:00:45:49.789
00:48:55.349 : en:00:48:55.349
01:00:14.444 : en:01:00:14.444
01:05:10.615 : en:01:05:10.615
01:07:53.987 : en:01:07:53.987
01:10:36.816 : en:01:10:36.816
01:13:25.401 : en:01:13:25.401
01:16:26.999 : en:01:16:26.999
01:21:00.814 : en:01:21:00.814
01:22:43.584 : en:01:22:43.584
01:25:43.263 : en:01:25:43.263
Скриншоты

 

Вложения

  • 15,7 KB Просмотры: 0
    Личеров 0
    Сидеров 0
    Файлов 1
    Объем 745,5 MB

Привет!

Мы группа людей которые решили помочь другим в решении их проблем, а так же пользователям с поиском самых свежих и качественных инфопродуктов. За 4 с небольшим месяца мы создали этот форум на который заходят ежедневно тысячи человек и посещаемость постоянно растёт. Мы создали панель лицензирования для защиты PHP скриптов от воровства и SEO панель для мониторинга наших сайтов и выбора верной стратегии их развития. Мы надеемся что то что мы создали пригодится Вам и возможно Вы поможете нам развиваться и совершенствоваться вместе с Вами.

Статистика форума

Темы
406.538
Сообщения
464.649
Пользователи
83.256
Новый пользователь
Asasa33

Приложения форума для iOS и Android


У ркн там нет власти ;)
Приватные разговоры
Помощь Пользователи
    Вы не присоединились ни к одной комнате.