За последнюю неделю опубликовано 151 новых материалов.
Инструкция новичку Путеводитель по форуму Прокси для Telegram Показать подсказки , это бомба!

Скачать Беспечные времена в «Риджмонт Хай» / Fast Times at Ridgemont High (1982) BDRip 1080p | Р, P2 бесплатно через торрент

  • Поучаствуй (в качестве покупателя) в любых пяти совместных покупках (кроме завершённых и "Моментальных") и получи группу "Новичок" навсегда -> ссылка на раздел
  • Получай до 480 рублей за каждого приглашенного пользователя!
    представляем Вам очередное расширение партнерской программы, подробности описаны тут -> ссылка
  • 90% материалов доступно к скачиванию после простой регистрации!
    Если же ты хочешь скачивать материалы без требования оставлять отзывы то получи группу "Новичок", 10 способов повышения описаны тут -> ссылка
  • К сожалению количество битых ссылок растет и мы уже не можем их оперативно восстанавливать поэтому просим помощи у каждого нашего пользователя.
    С сегодняшнего дня, за каждую восстановленную ссылку мы заплатим Вам.
    Подробнее тут -> ссылка
  • Перенесем твои заслуги с другого ресурса!
    Мы понимаем как сложно прокачивать аккаунты на форумах, вроде раскачал аккаунт, а тут появляется ресурс в 100 раз круче но тоже с системой прокачки и снова качать аккаунт...
    Предлагаем вам перенести Ваши заслуги на другом подобном ресурсе к нам.
    Подробности описаны тут -> ссылка
  • Вы можете получать по 2.5% с каждой покупки и продажи на маркете! Подробности в теме Партнёрская программа
Если Вы не хотите скачивать, Вы всегда можетепосмотретьонлайн, просто нажмите кнопку ниже :

Открыть плеер

Torrent_Bot

Торрент-Бот
Бот форума
4 Окт 2016
124
92
20

Название: Беспечные времена в «Риджмонт Хай»
Оригинальное название: Fast Times at Ridgemont High
Год выхода: 1982
Страна: США
Студия: Universal Pictures, Refugee Films
Продолжительность: 01:29:33
Жанр: мелодрама, комедия

Режиссер: Эми Хекерлинг
В ролях: Шон Пенн, Дженнифер Джейсон Ли, Джадж Райнхолд, Роберт Романус, Брайан Бэкер, Фиби Кейтс, Рэй Воллстон, Скотт Томсон, Винсент Скьявелли, Аманда Уайсс, ...

Перевод:
- Профессиональный (многоголосый, закадровый) СТС
- Профессиональный (двуголосый, закадровый) НТВ+
- Субтитры

О фильме: Веселый, юмористический рассказ о группе подростков, обучающихся в школе Риджмонт Хай в Южной Калифорнии. Они вечно торчат в торговом центре, и на уме у них только секс. Они борются со взрослыми за независимость, мечтают преуспеть, пытаются решать проблемы «переходного возраста»…






Кодек: x264
Качество: BDRip 1080p
Видео: 1920x1036, 14000 kbps, 24 fps
Аудио #1: AC-3, 2 ch, 192 kbps (Rus) - MVO СТС
Аудио #2: AC-3, 2 ch, 192 kbps (Rus) - DVO НТВ+
Аудио #3: DTS, 6 ch, 1509 kbps (Eng)
Субтитры: русские, английские

Дополнительная информация
За исходник спасибо - djamb
MediaInfo
x264 [info]: frame I:797 Avg QP:20.90 size:199319
x264 [info]: frame P:22637 Avg QP:23.43 size:105210
x264 [info]: frame B:105518 Avg QP:25.24 size: 64951
x264 [info]: consecutive B-frames: 0.9% 0.7% 4.8% 7.3% 10.3% 55.1% 5.0% 2.9% 2.7% 2.9% 2.6% 3.4% 0.7% 0.5% 0.3%

Общее
Уникальный идентификатор : 224984071940244060630490807777876032031 (0xA9425B2A6ADD8716AF97561A06E4BA1F)
Полное имя : Беспечные времена в «Риджмонт Хай» (Fast Times at Ridgemont High) 1982 BDRip 1080p.mkv
Формат : Matroska
Версия формата : Version 2
Размер файла : 9,93 Гбайт
Продолжительность : 1 ч. 29 м.
Общий поток : 15,9 Мбит/сек
Дата кодирования : UTC 2019-12-29 14:09:35
Программа кодирования : mkvmerge v4.0.0 ('The Stars were mine') сборка от Jun 6 2010 16:18:42
Библиотека кодирования : libebml v1.0.0 + libmatroska v1.0.0

Видео
Идентификатор : 1
Формат : AVC
Формат/Информация : Advanced Video Codec
Профиль формата : High@L4.1
Параметр CABAC формата : Да
Параметр ReFrames формата : 4 кадра
Идентификатор кодека : V_MPEG4/ISO/AVC
Продолжительность : 1 ч. 29 м.
Битрейт : 14,0 Мбит/сек
Ширина : 1920 пикселей
Высота : 1036 пикселей
Соотношение сторон : 1,85:1
Режим частоты кадров : Постоянный
Частота кадров : 24,000 кадра/сек
Цветовое пространство : YUV
Субдискретизация насыщенности : 4:2:0
Битовая глубина : 8 бит
Тип развёртки : Прогрессивная
Бит/(Пиксели*Кадры) : 0.293
Размер потока : 8,55 Гбайт (86%)
Библиотека кодирования : x264 core 146 r2538 121396c
Настройки программы : cabac=1 / ref=4 / deblock=1:-2:-2 / analyse=0x3:0x133 / me=umh / subme=11 / psy=1 / psy_rd=1.00:0.00 / mixed_ref=1 / me_range=32 / chroma_me=1 / trellis=2 / 8x8dct=1 / cqm=0 / deadzone=21,11 / fast_pskip=0 / chroma_qp_offset=-2 / threads=12 / lookahead_threads=2 / sliced_threads=0 / nr=0 / decimate=0 / interlaced=0 / bluray_compat=0 / constrained_intra=0 / bframes=14 / b_pyramid=2 / b_adapt=2 / b_bias=0 / direct=3 / weightb=1 / open_gop=0 / weightp=2 / keyint=240 / keyint_min=24 / scenecut=40 / intra_refresh=0 / rc=2pass / mbtree=0 / bitrate=14000 / ratetol=1.0 / qcomp=0.60 / qpmin=0 / qpmax=69 / qpstep=4 / cplxblur=20.0 / qblur=0.5 / ip_ratio=1.40 / pb_ratio=1.30 / aq=3:0.80
Язык : English
Default : Нет
Forced : Нет

Аудио #1
Идентификатор : 2
Формат : AC-3
Формат/Информация : Audio Coding 3
Расширение режима : CM (complete main)
Параметр Endianness формата : Big
Идентификатор кодека : A_AC3
Продолжительность : 1 ч. 29 м.
Вид битрейта : Постоянный
Битрейт : 192 Кбит/сек
Каналы : 2 канала
Расположение каналов : Front: L R
Частота : 48,0 КГц
Частота кадров : 31,250 кадров/сек (1536 spf)
Метод сжатия : С потерями
Размер потока : 123 Мбайт (1%)
Заголовок : MVO СТС
Язык : Russian
Default : Нет
Forced : Нет

Аудио #2
Идентификатор : 3
Формат : AC-3
Формат/Информация : Audio Coding 3
Расширение режима : CM (complete main)
Параметр Endianness формата : Big
Идентификатор кодека : A_AC3
Продолжительность : 1 ч. 29 м.
Вид битрейта : Постоянный
Битрейт : 192 Кбит/сек
Каналы : 2 канала
Расположение каналов : Front: L R
Частота : 48,0 КГц
Частота кадров : 31,250 кадров/сек (1536 spf)
Метод сжатия : С потерями
Размер потока : 123 Мбайт (1%)
Заголовок : DVO НТВ+
Язык : Russian
Default : Нет
Forced : Нет

Аудио #3
Идентификатор : 4
Формат : DTS
Формат/Информация : Digital Theater Systems
Режим : 16
Параметр Endianness формата : Big
Идентификатор кодека : A_DTS
Продолжительность : 1 ч. 29 м.
Вид битрейта : Постоянный
Битрейт : 1509 Кбит/сек
Каналы : 6 каналов
Расположение каналов : Front: L C R, Side: L R, LFE
Частота : 48,0 КГц
Частота кадров : 93,750 кадра/сек (512 spf)
Битовая глубина : 24 бит
Метод сжатия : С потерями
Задержка видео : 11 мс.
Размер потока : 967 Мбайт (10%)
Язык : English
Default : Нет
Forced : Нет

Текст #1
Идентификатор : 5
Формат : UTF-8
Идентификатор кодека : S_TEXT/UTF8
Идентификатор кодека/Информация : UTF-8 Plain Text
Язык : Russian
Default : Нет
Forced : Нет

Текст #2
Идентификатор : 6
Формат : UTF-8
Идентификатор кодека : S_TEXT/UTF8
Идентификатор кодека/Информация : UTF-8 Plain Text
Язык : English
Default : Нет
Forced : Нет

Меню
00:00:00.000 : en:Chapter 01
00:02:33.791 : en:Chapter 02
00:06:27.166 : en:Chapter 03
00:11:52.333 : en:Chapter 04
00:16:29.333 : en:Chapter 05
00:21:17.625 : en:Chapter 06
00:25:21.666 : en:Chapter 07
00:29:28.375 : en:Chapter 08
00:33:29.458 : en:Chapter 09
00:38:17.625 : en:Chapter 10
00:42:52.291 : en:Chapter 11
00:48:27.625 : en:Chapter 12
00:53:05.208 : en:Chapter 13
00:59:45.875 : en:Chapter 14
01:05:46.541 : en:Chapter 15
01:10:32.625 : en:Chapter 16
01:16:22.458 : en:Chapter 17
01:20:56.000 : en:Chapter 18
01:22:38.666 : en:Chapter 19
01:25:35.416 : en:Chapter 20
01:29:32.000 : en:Chapter 21

 

Вложения

  • 50,7 KB Просмотры: 0
    Личеров 0
    Сидеров 0
    Файлов 1
    Объем 9,9 GB
Ваш e-mail не будет опубликован. Он потребуется для подтверждения Вашего поста.
Оформление текста Нажмите «Ввод», чтобы отправить ответ.

Привет!

Мы группа людей которые решили помочь другим в решении их проблем, а так же пользователям с поиском самых свежих и качественных инфопродуктов. За 4 с небольшим месяца мы создали этот форум на который заходят ежедневно тысячи человек и посещаемость постоянно растёт. Мы создали панель лицензирования для защиты PHP скриптов от воровства и SEO панель для мониторинга наших сайтов и выбора верной стратегии их развития. Мы надеемся что то что мы создали пригодится Вам и возможно Вы поможете нам развиваться и совершенствоваться вместе с Вами.

Статистика форума

Темы
378.561
Сообщения
417.566
Пользователи
48.917
Новый пользователь
6481000

Приложения форума для iOS и Android


У ркн там нет власти ;)
Приватные разговоры
Помощь Пользователи
    Вы не присоединились ни к одной комнате.