За последнюю неделю опубликовано 63 новых материалов.
Инструкция новичку Путеводитель по форуму Прокси для Telegram Показать подсказки , это бомба!

Скачать Бескрайняя ночь / The Vast of Night (2019) WEB-DL 720p | P бесплатно через торрент

  • Поучаствуй (в качестве покупателя) в любых пяти совместных покупках (кроме завершённых и "Моментальных") и получи группу "Новичок" навсегда -> ссылка на раздел
  • Получай до 480 рублей за каждого приглашенного пользователя!
    представляем Вам очередное расширение партнерской программы, подробности описаны тут -> ссылка
  • 90% материалов доступно к скачиванию после простой регистрации!
    Если же ты хочешь скачивать материалы без требования оставлять отзывы то получи группу "Новичок", 10 способов повышения описаны тут -> ссылка
  • К сожалению количество битых ссылок растет и мы уже не можем их оперативно восстанавливать поэтому просим помощи у каждого нашего пользователя.
    С сегодняшнего дня, за каждую восстановленную ссылку мы заплатим Вам.
    Подробнее тут -> ссылка
  • Перенесем твои заслуги с другого ресурса!
    Мы понимаем как сложно прокачивать аккаунты на форумах, вроде раскачал аккаунт, а тут появляется ресурс в 100 раз круче но тоже с системой прокачки и снова качать аккаунт...
    Предлагаем вам перенести Ваши заслуги на другом подобном ресурсе к нам.
    Подробности описаны тут -> ссылка
  • Вы можете получать по 2.5% с каждой покупки и продажи на маркете! Подробности в теме Партнёрская программа
Если Вы не хотите скачивать, Вы всегда можетепосмотретьонлайн, просто нажмите кнопку ниже :

Открыть плеер

Torrent_Bot

Торрент-Бот
Бот форума
4 Окт 2016
92
160
20


Информация о фильме
Название: Бескрайняя ночь
Оригинальное название: The Vast of Night
Год выхода: 2019
Жанр: Фантастика, фэнтези, триллер, детектив
Режиссер: Эндрю Паттерсон
В ролях: Сьерра МакКормик, Молли Миллиган, Гэйл Кронау, Джейк Хоровиц, Брюс Дэвис, Брэндон Стюарт, Шайенн Бартон, Мэллори Родак, Ингрид Физи, Грегори Пейтон

О фильме:
Конец 1950-х, городок Каюга в штате Нью-Мексико. Почти все жители собираются на вечерний матч местной баскетбольной команды, а большая любительница читать в журналах о достижениях науки и техники 17-летняя Фэй и её приятель Эверетт заступают на ночные дежурства. Девушка работает телефонисткой, и в эту смену со связью происходит что-то странное — звонки обрываются, а по одной линии транслируется странный шум. Она звонит Эверетту, который ведёт радиопередачу, друзья решают выяснить происхождение этого звука и пускают его в эфир.




Страна: США
Студия: Amazon Studios, GED Cinema
Продолжительность: 01:30:59
Перевод: Профессиональный многоголосый | HDRezka Studio

Файл
Кодек: AVC
Качество: WEB-DL 720p | The.Vast.Of.Night.2019.720p.WEB-DL.H264-WATCHER
Видео: MPEG-4 AVC, 5014 Kбит/с, 1248x520, 23.976 кадр/с
Аудио #1: Русский (АС3, 6 ch, 448 Кбит/с, 48.0 KHz) Профессиональный (многоголосый, закадровый) HDRezka Studio
Аудио #2: Английский (АС3, 6 ch, 640 Кбит/с, 48.0 KHz)
Субтитры: Русские (Forced, Full), английские, испанские, французские, немецкие, итальянские, португальские | AMZN
► Без Рекламы!
Трейлер
MediaInfo
Источник: The.Vast.Of.Night.2019.720p.WEB-DL.H264-WATCHER
General
Unique ID : 206101744491850201518771707132689585325 (0x9B0DC08BA3B83F4BA34183DA749114AD)
Complete name : The.Vast.Of.Night.2019.WEB-DL.720p.mkv
Format : Matroska
Format version : Version 4
File size : 3.88 GiB
Duration : 1 h 30 min
Overall bit rate : 6 106 kb/s
Encoded date : UTC 2020-06-17 08:13:52
Writing application : mkvmerge v7.1.0 ('Good Love') 64bit built on Jul 27 2014 13:06:55
Writing library : libebml v1.3.0 + libmatroska v1.4.1

Video
ID : 1
Format : AVC
Format/Info : Advanced Video Codec
Format profile : [email protected]
Format settings : CABAC / 4 Ref Frames
Format settings, CABAC : Yes
Format settings, Reference fra : 4 frames
Codec ID : V_MPEG4/ISO/AVC
Duration : 1 h 30 min
Bit rate mode : Constant
Bit rate : 5 014 kb/s
Nominal bit rate : 6 000 kb/s
Width : 1 248 pixels
Height : 520 pixels
Display aspect ratio : 2.40:1
Frame rate mode : Constant
Frame rate : 23.976 (24000/1001) FPS
Color space : YUV
Chroma subsampling : 4:2:0
Bit depth : 8 bits
Scan type : Progressive
Bits/(Pixel*Frame) : 0.322
Stream size : 3.19 GiB (82%)
Language : English
Default : Yes
Forced : No
Color range : Limited
Color primaries : BT.709
Transfer characteristics : BT.709
Matrix coefficients : BT.709

Audio #1
ID : 2
Format : AC-3
Format/Info : Audio Coding 3
Commercial name : Dolby Digital
Codec ID : A_AC3
Duration : 1 h 30 min
Bit rate mode : Constant
Bit rate : 448 kb/s
Channel(s) : 6 channels
Channel layout : L R C LFE Ls Rs
Sampling rate : 48.0 kHz
Frame rate : 31.250 FPS (1536 SPF)
Compression mode : Lossy
Stream size : 292 MiB (7%)
Title : MVO | HDRezka Studio
Language : Russian
Service kind : Complete Main
Default : Yes
Forced : No

Audio #2
ID : 3
Format : AC-3
Format/Info : Audio Coding 3
Commercial name : Dolby Digital
Codec ID : A_AC3
Duration : 1 h 30 min
Bit rate mode : Constant
Bit rate : 640 kb/s
Channel(s) : 6 channels
Channel layout : L R C LFE Ls Rs
Sampling rate : 48.0 kHz
Frame rate : 31.250 FPS (1536 SPF)
Compression mode : Lossy
Stream size : 416 MiB (10%)
Language : English
Service kind : Complete Main
Default : No
Forced : No

Text #1
ID : 4
Format : UTF-8
Codec ID : S_TEXT/UTF8
Codec ID/Info : UTF-8 Plain Text
Duration : 1 h 24 min
Bit rate : 0 b/s
Count of elements : 12
Stream size : 499 Bytes (0%)
Title : Forced
Language : Russian
Default : Yes
Forced : No

Text #2
ID : 5
Format : UTF-8
Codec ID : S_TEXT/UTF8
Codec ID/Info : UTF-8 Plain Text
Duration : 1 h 29 min
Bit rate : 138 b/s
Count of elements : 1605
Stream size : 90.8 KiB (0%)
Title : Full
Language : Russian
Default : No
Forced : No

Text #3
ID : 6
Format : UTF-8
Codec ID : S_TEXT/UTF8
Codec ID/Info : UTF-8 Plain Text
Duration : 1 h 20 min
Bit rate : 99 b/s
Count of elements : 1351
Stream size : 58.7 KiB (0%)
Language : English
Default : No
Forced : No

Text #4
ID : 7
Format : UTF-8
Codec ID : S_TEXT/UTF8
Codec ID/Info : UTF-8 Plain Text
Duration : 1 h 23 min
Bit rate : 102 b/s
Count of elements : 1447
Stream size : 62.9 KiB (0%)
Title : SDH
Language : English
Default : No
Forced : No

Text #5
ID : 8
Format : UTF-8
Codec ID : S_TEXT/UTF8
Codec ID/Info : UTF-8 Plain Text
Duration : 1 h 29 min
Bit rate : 76 b/s
Count of elements : 1572
Stream size : 50.5 KiB (0%)
Language : French
Default : No
Forced : No

Text #6
ID : 9
Format : UTF-8
Codec ID : S_TEXT/UTF8
Codec ID/Info : UTF-8 Plain Text
Duration : 1 h 29 min
Bit rate : 80 b/s
Count of elements : 1580
Stream size : 53.2 KiB (0%)
Language : German
Default : No
Forced : No

Text #7
ID : 10
Format : UTF-8
Codec ID : S_TEXT/UTF8
Codec ID/Info : UTF-8 Plain Text
Duration : 1 h 29 min
Bit rate : 70 b/s
Count of elements : 1307
Stream size : 46.6 KiB (0%)
Language : Spanish
Default : No
Forced : No

Text #8
ID : 11
Format : UTF-8
Codec ID : S_TEXT/UTF8
Codec ID/Info : UTF-8 Plain Text
Duration : 1 h 29 min
Bit rate : 80 b/s
Count of elements : 1390
Stream size : 53.1 KiB (0%)
Language : Italian
Default : No
Forced : No

Text #9
ID : 12
Format : UTF-8
Codec ID : S_TEXT/UTF8
Codec ID/Info : UTF-8 Plain Text
Duration : 1 h 29 min
Bit rate : 78 b/s
Count of elements : 1551
Stream size : 51.3 KiB (0%)
Title : Portugal
Language : Portuguese
Default : No
Forced : No

Menu
00:00:00.000 : en:Amazon Original
00:00:21.000 : en:Studio Logo
00:00:30.000 : en:Opening Credits
00:00:48.000 : en:Small talk around a basketball game
00:06:22.000 : en:Mock interviews
00:10:37.000 : en:More interviews
00:13:20.000 : en:Fay tells Everett a story of the future
00:18:52.000 : en:Coming in to work
00:20:05.000 : en:A night of strange calls and sounds
00:26:28.000 : en:Fay calls Everett
00:31:00.000 : en:A tour around town
00:34:26.000 : en:Someone calls in with a story
00:42:33.000 : en:Time to act
00:47:36.000 : en:Breaking into the library
00:50:20.000 : en:Listening to the tapes
00:53:53.000 : en:power outage
00:56:20.000 : en:Suspicious things in the sky
00:58:33.000 : en:Mabel tells her story
01:12:35.000 : en:Checking on family and friends
01:15:29.000 : en:A frantic car ride
01:18:12.000 : en:Finding something in the woods
01:23:58.000 : en:Life returns to normal
01:25:40.000 : en:End Credits
Скриншоты
 

Вложения

  • 20,3 KB Просмотры: 0
    Личеров 0
    Сидеров 0
    Файлов 1
    Объем 3,9 GB

Привет!

Мы группа людей которые решили помочь другим в решении их проблем, а так же пользователям с поиском самых свежих и качественных инфопродуктов. За 4 с небольшим месяца мы создали этот форум на который заходят ежедневно тысячи человек и посещаемость постоянно растёт. Мы создали панель лицензирования для защиты PHP скриптов от воровства и SEO панель для мониторинга наших сайтов и выбора верной стратегии их развития. Мы надеемся что то что мы создали пригодится Вам и возможно Вы поможете нам развиваться и совершенствоваться вместе с Вами.

Статистика форума

Темы
406.656
Сообщения
465.106
Пользователи
84.674
Новый пользователь
Юрий 1990

Приложения форума для iOS и Android


У ркн там нет власти ;)
Приватные разговоры
Помощь Пользователи
    Вы не присоединились ни к одной комнате.