За последнюю неделю опубликовано 57 новых материалов.
Инструкция новичку Путеводитель по форуму Прокси для Telegram Показать подсказки , это бомба!

Скачать Бескрайняя ночь / The Vast of Night (2019) WEB-DL 1080p от ExKinoRay | HDRezka Studio бесплатно через торрент

  • Поучаствуй (в качестве покупателя) в любых пяти совместных покупках (кроме завершённых и "Моментальных") и получи группу "Новичок" навсегда -> ссылка на раздел
  • Получай до 480 рублей за каждого приглашенного пользователя!
    представляем Вам очередное расширение партнерской программы, подробности описаны тут -> ссылка
  • 90% материалов доступно к скачиванию после простой регистрации!
    Если же ты хочешь скачивать материалы без требования оставлять отзывы то получи группу "Новичок", 10 способов повышения описаны тут -> ссылка
  • К сожалению количество битых ссылок растет и мы уже не можем их оперативно восстанавливать поэтому просим помощи у каждого нашего пользователя.
    С сегодняшнего дня, за каждую восстановленную ссылку мы заплатим Вам.
    Подробнее тут -> ссылка
  • Перенесем твои заслуги с другого ресурса!
    Мы понимаем как сложно прокачивать аккаунты на форумах, вроде раскачал аккаунт, а тут появляется ресурс в 100 раз круче но тоже с системой прокачки и снова качать аккаунт...
    Предлагаем вам перенести Ваши заслуги на другом подобном ресурсе к нам.
    Подробности описаны тут -> ссылка
  • Вы можете получать по 2.5% с каждой покупки и продажи на маркете! Подробности в теме Партнёрская программа
Если Вы не хотите скачивать, Вы всегда можетепосмотретьонлайн, просто нажмите кнопку ниже :

Открыть плеер

Torrent_Bot

Торрент-Бот
Бот форума
4 Окт 2016
92
163
20



Название: Бескрайняя ночь
Оригинальное название: The Vast of Night
Год выхода: 2019
Жанр: фантастика, триллер, детектив
Режиссер: Эндрю Паттерсон
В ролях: Сьерра Маккормик, Джейк Хоровиц, Гэйл Кронау, Брюс Дэвис, Cheyenne Barton, Gregory Peyton, Мэллори Родак, Молли Миллиган, Ingrid Fease, Брендон Стюарт

Описание: В конце 1950-х в штате Нью-Мексико телефонистка Фей и радиоведущий Эверетт обнаруживают странный сигнал, тайна происхождения которого способна изменить жизнь их маленького городка и их будущее.



Страна: США
Студия: GED Cinema
Продолжительность: 01:31:00
Перевод: Профессиональный (многоголосый, закадровый) | HDRezka Studio
Субтитры: Русские (forced, full), английские


БЕЗ КАКОЙ-ЛИБО РЕКЛАМЫ!

Формат: MKV
Качество: WEB-DL 1080p
Видео: MPEG-4 AVC, 1920x800 (2.40:1), 23.976 fps, 10000 Kbps, 0.249 bit/pixel
Аудио 1: 48 kHz, AC3, 5.1, 448 Kbps | MVO | RUS |
Аудио 2: 48 kHz, E-AC3, 5.1, 640 Kbps | Оригинал | ENG |


ОтчетМедиаИнфо
General
Unique ID : 229837609966287345726056268529465849449 (0xACE91D10D4556CCFA172C892D9107669)
Complete name : C:The.Vast.of.Night.2019.1080p.AMZN.WEBRip.DDP5.1.x264-NTGThe.Vast.of.Night.2019.1080p.AMZN.WEB-DL.ExKinoRay.mkv
Format : Matroska
Format version : Version 2
File size : 6.66 GiB
Duration : 1 h 30 min
Overall bit rate : 10.5 Mb/s
Movie name : The Vast of Night 2019 from ExKinoRay
Encoded date : UTC 2020-06-17 02:45:38
Writing application : mkvmerge v5.6.0 ('Kenya Kane') built on May 27 2012 16:44:04
Writing library : libebml v1.2.3 + libmatroska v1.3.0

Video
ID : 1
Format : AVC
Format/Info : Advanced Video Codec
Format profile : [email protected]
Format settings, CABAC : Yes
Format settings, ReFrames : 4 frames
Codec ID : V_MPEG4/ISO/AVC
Duration : 1 h 30 min
Bit rate mode : Constant
Bit rate : 9 183 kb/s
Nominal bit rate : 10 000 kb/s
Width : 1 920 pixels
Height : 800 pixels
Display aspect ratio : 2.40:1
Frame rate mode : Constant
Frame rate : 23.976 (24000/1001) FPS
Color space : YUV
Chroma subsampling : 4:2:0
Bit depth : 8 bits
Scan type : Progressive
Bits/(Pixel*Frame) : 0.249
Stream size : 5.84 GiB (88%)
Title : NTG
Default : Yes
Forced : No
Color range : Limited
Color primaries : BT.709
Transfer characteristics : BT.709
Matrix coefficients : BT.709

Audio #1
ID : 2
Format : AC-3
Format/Info : Audio Coding 3
Mode extension : CM (complete main)
Format settings, Endianness : Big
Codec ID : A_AC3
Duration : 1 h 30 min
Bit rate mode : Constant
Bit rate : 448 kb/s
Channel(s) : 6 channels
Channel positions : Front: L C R, Side: L R, LFE
Sampling rate : 48.0 kHz
Frame rate : 31.250 FPS (1536 spf)
Compression mode : Lossy
Stream size : 292 MiB (4%)
Title : MVO (HDRezka Studio)
Language : Russian
Default : Yes
Forced : No

Audio #2
ID : 3
Format : E-AC-3
Format/Info : Audio Coding 3
Format settings, Endianness : Big
Codec ID : A_EAC3
Duration : 1 h 30 min
Bit rate mode : Constant
Bit rate : 640 kb/s
Channel(s) : 6 channels
Channel positions : Front: L C R, Side: L R, LFE
Sampling rate : 48.0 kHz
Frame rate : 187.500 FPS (256 spf)
Compression mode : Lossy
Stream size : 416 MiB (6%)
Language : English
Default : No
Forced : No

Text #1
ID : 4
Format : UTF-8
Codec ID : S_TEXT/UTF8
Codec ID/Info : UTF-8 Plain Text
Title : Forced
Language : Russian
Default : Yes
Forced : No

Text #2
ID : 5
Format : UTF-8
Codec ID : S_TEXT/UTF8
Codec ID/Info : UTF-8 Plain Text
Language : Russian
Default : No
Forced : No

Text #3
ID : 6
Format : UTF-8
Codec ID : S_TEXT/UTF8
Codec ID/Info : UTF-8 Plain Text
Language : English
Default : No
Forced : No

Text #4
ID : 7
Format : UTF-8
Codec ID : S_TEXT/UTF8
Codec ID/Info : UTF-8 Plain Text
Title : SDH
Language : English
Default : No
Forced : No

Menu
00:00:00.000 : en:Amazon Original
00:00:21.000 : en:Studio Logo
00:00:30.000 : en:Opening Credits
00:00:48.000 : en:Small talk around a basketball game
00:06:22.000 : en:Mock interviews
00:10:37.000 : en:More interviews
00:13:20.000 : en:Fay tells Everett a story of the future
00:18:52.000 : en:Coming in to work
00:20:05.000 : en:A night of strange calls and sounds
00:26:28.000 : en:Fay calls Everett
00:31:00.000 : en:A tour around town
00:34:26.000 : en:Someone calls in with a story
00:42:33.000 : en:Time to act
00:47:36.000 : en:Breaking into the library
00:50:20.000 : en:Listening to the tapes
00:53:53.000 : en:power outage
00:56:20.000 : en:Suspicious things in the sky
00:58:33.000 : en:Mabel tells her story
01:12:35.000 : en:Checking on family and friends
01:15:29.000 : en:A frantic car ride
01:18:12.000 : en:Finding something in the woods
01:23:58.000 : en:Life returns to normal
01:25:40.000 : en:End Credits





Релиз от:

Автор релиза:
 

Вложения

  • 34,3 KB Просмотры: 0
    Личеров 0
    Сидеров 0
    Файлов 1
    Объем 6,7 GB

Привет!

Мы группа людей которые решили помочь другим в решении их проблем, а так же пользователям с поиском самых свежих и качественных инфопродуктов. За 4 с небольшим месяца мы создали этот форум на который заходят ежедневно тысячи человек и посещаемость постоянно растёт. Мы создали панель лицензирования для защиты PHP скриптов от воровства и SEO панель для мониторинга наших сайтов и выбора верной стратегии их развития. Мы надеемся что то что мы создали пригодится Вам и возможно Вы поможете нам развиваться и совершенствоваться вместе с Вами.

Статистика форума

Темы
406.699
Сообщения
465.164
Пользователи
84.823
Новый пользователь
servet2510

Приложения форума для iOS и Android


У ркн там нет власти ;)
Приватные разговоры
Помощь Пользователи
    Вы не присоединились ни к одной комнате.