За последнюю неделю опубликовано 0 новых материалов.
Инструкция новичку Путеводитель по форуму Прокси для Telegram Показать подсказки , это бомба!

Скачать Берегите мужчин (1982) DVDRip бесплатно через торрент

  • Поучаствуй (в качестве покупателя) в любых пяти совместных покупках (кроме завершённых и "Моментальных") и получи группу "Новичок" навсегда -> ссылка на раздел
  • Получай до 480 рублей за каждого приглашенного пользователя!
    представляем Вам очередное расширение партнерской программы, подробности описаны тут -> ссылка
  • 90% материалов доступно к скачиванию после простой регистрации!
    Если же ты хочешь скачивать материалы без требования оставлять отзывы то получи группу "Новичок", 10 способов повышения описаны тут -> ссылка
  • К сожалению количество битых ссылок растет и мы уже не можем их оперативно восстанавливать поэтому просим помощи у каждого нашего пользователя.
    С сегодняшнего дня, за каждую восстановленную ссылку мы заплатим Вам.
    Подробнее тут -> ссылка
  • Перенесем твои заслуги с другого ресурса!
    Мы понимаем как сложно прокачивать аккаунты на форумах, вроде раскачал аккаунт, а тут появляется ресурс в 100 раз круче но тоже с системой прокачки и снова качать аккаунт...
    Предлагаем вам перенести Ваши заслуги на другом подобном ресурсе к нам.
    Подробности описаны тут -> ссылка
  • Вы можете получать по 2.5% с каждой покупки и продажи на маркете! Подробности в теме Партнёрская программа
Если Вы не хотите скачивать, Вы всегда можетепосмотретьонлайн, просто нажмите кнопку ниже :

Открыть плеер

Torrent_Bot

Торрент-Бот
Бот форума
4 Окт 2016
79
196
20
Информация о фильме
Название: Берегите мужчин
Год выхода: 1982
Жанр: Комедия
Режиссёр: Александр Серый
В ролях: Леонид Куравлёв, Нина Русланова, Александр Лазарев, Александр Вокач, Наталья Селезнёва, Нина Агапова, Вадим Захарченко, Николай Кочегаров, Римма Маркова, Марина Стриженова

О фильме: Она — деловая, мужественная, энергичная. Он — бесхребетный, неловкий и к тому же не поддающийся «исправлению». Дело идет к разводу. Тем более, что на горизонте вдруг появляется пылкий поклонник ее красоты. Однако это обстоятельство, в конечном счете, приводит к неожиданному результату...



Страна: СССР
Студия: Мосфильм
Продолжительность: 01:15:27
Перевод: Не требуется (оригинальный)

Файл
Формат: avi
Качество: DVDRip (DVD5)
Видео: XviD, 688х368, 25fps, 2400kbps
Аудио: AC3 Dolby Digital, 2ch, 48000Hz, 192kbps



MediaInfo
General
Complete name : Beregite.Muzhchin.1982.O.DVDRip.1400.CurHaJI.avi
Format : AVI
Format/Info : Audio Video Interleave
File size : 1.37 GiB
Duration : 1h 15mn
Overall bit rate : 2 602 Kbps
Movie name : Beregite.Muzhchin.1982.O.DVDRip.1400.CurHaJI
Writing application : VirtualDubMod 1.5.10.3 | www.virtualdub-fr.org || (build 2550/release)
Writing library : VirtualDub build 35491/release

Video
ID : 0
Format : MPEG-4 Visual
Format profile : Advanced [email protected]
Format settings, BVOP : 2
Format settings, QPel : No
Format settings, GMC : No warppoints
Format settings, Matrix : Custom
Codec ID : XVID
Codec ID/Hint : XviD
Duration : 1h 15mn
Bit rate : 2 400 Kbps
Width : 688 pixels
Height : 368 pixels
Display aspect ratio : 1.85:1
Frame rate : 25.000 fps
Color space : YUV
Chroma subsampling : 4:2:0
Bit depth : 8 bits
Scan type : Progressive
Compression mode : Lossy
Bits/(Pixel*Frame) : 0.379
Stream size : 1.26 GiB (92%)
Writing library : XviD 73

Audio
ID : 1
Format : AC-3
Format/Info : Audio Coding 3
Mode extension : CM (complete main)
Format settings, Endianness : Big
Codec ID : 2000
Duration : 1h 15mn
Bit rate mode : Constant
Bit rate : 192 Kbps
Channel(s) : 2 channels
Channel positions : Front: L R
Sampling rate : 48.0 KHz
Bit depth : 16 bits
Compression mode : Lossy
Stream size : 104 MiB (7%)
Alignment : Split accross interleaves
Interleave, duration : 40 ms (1.00 video frame)
Interleave, preload duration : 500 ms
Скриншоты

Релиз от:
 

Вложения

  • 14,8 KB Просмотры: 0
    Личеров 0
    Сидеров 0
    Файлов 1
    Объем 1,4 GB

Привет!

Мы группа людей которые решили помочь другим в решении их проблем, а так же пользователям с поиском самых свежих и качественных инфопродуктов. За 4 с небольшим месяца мы создали этот форум на который заходят ежедневно тысячи человек и посещаемость постоянно растёт. Мы создали панель лицензирования для защиты PHP скриптов от воровства и SEO панель для мониторинга наших сайтов и выбора верной стратегии их развития. Мы надеемся что то что мы создали пригодится Вам и возможно Вы поможете нам развиваться и совершенствоваться вместе с Вами.

Статистика форума

Темы
414.370
Сообщения
475.396
Пользователи
96.561
Новый пользователь
starushka

Приложения форума для iOS и Android


У ркн там нет власти ;)
Приватные разговоры
Помощь Пользователи
    Вы не присоединились ни к одной комнате.