За последнюю неделю опубликовано 29 новых материалов.
Инструкция новичку Путеводитель по форуму Прокси для Telegram Показать подсказки , это бомба!

Скачать Белый тигр / White Tiger (1996) WEB-DLRip-AVC | A бесплатно через торрент

  • Поучаствуй (в качестве покупателя) в любых пяти совместных покупках (кроме завершённых и "Моментальных") и получи группу "Новичок" навсегда -> ссылка на раздел
  • Получай до 480 рублей за каждого приглашенного пользователя!
    представляем Вам очередное расширение партнерской программы, подробности описаны тут -> ссылка
  • 90% материалов доступно к скачиванию после простой регистрации!
    Если же ты хочешь скачивать материалы без требования оставлять отзывы то получи группу "Новичок", 10 способов повышения описаны тут -> ссылка
  • К сожалению количество битых ссылок растет и мы уже не можем их оперативно восстанавливать поэтому просим помощи у каждого нашего пользователя.
    С сегодняшнего дня, за каждую восстановленную ссылку мы заплатим Вам.
    Подробнее тут -> ссылка
  • Перенесем твои заслуги с другого ресурса!
    Мы понимаем как сложно прокачивать аккаунты на форумах, вроде раскачал аккаунт, а тут появляется ресурс в 100 раз круче но тоже с системой прокачки и снова качать аккаунт...
    Предлагаем вам перенести Ваши заслуги на другом подобном ресурсе к нам.
    Подробности описаны тут -> ссылка
  • Вы можете получать по 2.5% с каждой покупки и продажи на маркете! Подробности в теме Партнёрская программа
Если Вы не хотите скачивать, Вы всегда можетепосмотретьонлайн, просто нажмите кнопку ниже :

Открыть плеер

Torrent_Bot

Торрент-Бот
Бот форума
4 Окт 2016
122
127
20


Информация о фильме
Название: Белый тигр
Оригинальное название: White Tiger
Год выхода: 1996
Жанр: боевик, триллер, драма, криминал
Режиссер: Ричард Мартин
В ролях: Гэри Дэниелс, Мэтт Крэвен, Кэри-Хироюки Тагава, Лиза Ланглуа, Дж. Макс Киришма, Джулия Никсон-Соул, Дэна Ли, Джон Кассини, Джордж Чунг, Бенжамин Рэтнер, Рон Йуан

О фильме:
Майк Райан — крутой агент сил специального назначения. В ходе неудачного рейда против дельцов наркобизнеса безжалостно убит его лучший друг и напарник, семья которого была для Майка вторым домом. Он начинаетразыскивать убийцу — короля наркобизнеса из Гонконга Чоу, по кличке «Белый тигр» и в одном из баров Чайнатауна встречает красавицу Джейд, которая соглашантся ему помочь. Распространяются слухи об охоте на «Белого тигра». У наркомафии Гонконга возникают опасения и они отправляют наемного убийцу, чтобы устранить подозрительное звено в своей смертоносной цепи. А Чоу, узнав, что ему пытается отомстить разъяренный полицейский, приказывает Джейд заманить Майка в ловушку. Но он и не подозревает, что убийца, посланный его убрать — это Джейд, и эта западня может оказаться смертельной для него.



Выпущено: Den Pictures Inc. / Evergreen Entertainment, Канада, США
Продолжительность: 01:33:35
Перевод: Авторский (одноголосый, закадровый)
Субтитры: English

Файл
Формат: Matroska
Качество: WEB-DLRip-AVC
Видео: 1024x576 at 23.976 fps, x264, ~2951 kbps, 0.208 bpp
Аудио #1: Русский (AC3, 2 ch, 192 Кбит/с) - AVO (Дольский)
Аудио #2: Русский (AC3, 2 ch, 192 Кбит/с) - AVO (Гаврилов)
Формат субтитров: softsub (SRT)

***Релиз от:-=DoMiNo=-

M/I
x264 info: frame I:915 Avg QP:18.42 size: 61380
x264 info: frame P:31228 Avg QP:19.78 size: 31496
x264 info: frame B:102493 Avg QP:21.60 size: 9743
x264 info: consecutive B-frames: 2.5% 4.2% 6.9% 34.3% 14.0% 17.8% 6.1% 11.6% 0.8% 0.3% 0.7% 0.1% 0.2% 0.1% 0.3%

General
Format : Matroska
Format version : Version 4
File size : 2.18 GiB
Duration : 1 h 33 min
Overall bit rate : 3 332 kb/s
Movie name : Белый Тигр.(1996).WEB-DLRip-AVC.(16х9).[-=DoMiNo=-].mkv
Encoded date : UTC 2020-01-21 16:31:52
Writing application : mkvmerge v42.0.0 ('Overtime') 64-bit
Writing library : libebml v1.3.10 + libmatroska v1.5.2
Attachments : poster / poster

Video
ID : 1
Format : AVC
Format/Info : Advanced Video Codec
Format profile : [email protected]
Format settings : CABAC / 14 Ref Frames
Format settings, CABAC : Yes
Format settings, Reference : 14 frames
Codec ID : V_MPEG4/ISO/AVC
Duration : 1 h 33 min
Bit rate : 2 951 kb/s
Width : 1 024 pixels
Height : 576 pixels
Display aspect ratio : 16:9
Frame rate mode : Constant
Frame rate : 23.976 (24000/1001) FPS
Color space : YUV
Chroma subsampling : 4:2:0
Bit depth : 8 bits
Scan type : Progressive
Bits/(Pixel*Frame) : 0.209
Stream size : 1.93 GiB (88%)
Title : RIP_BY_-=DoMiNo=-
Writing library : x264 core 157 r2958 57baac4
Encoding settings : cabac=1 / ref=14 / deblock=1:-3:-3 / analyse=0x3:0x133 / me=umh / subme=11 / psy=1 / psy_rd=1.00:0.25 / mixed_ref=1 / me_range=32 / chroma_me=1 / trellis=2 / 8x8dct=1 / cqm=0 / deadzone=21,11 / fast_pskip=0 / chroma_qp_offset=-4 / threads=6 / lookahead_threads=1 / sliced_threads=0 / nr=0 / decimate=0 / interlaced=0 / bluray_compat=0 / constrained_intra=0 / bframes=14 / b_pyramid=2 / b_adapt=2 / b_bias=0 / direct=3 / weightb=1 / open_gop=0 / weightp=2 / keyint=240 / keyint_min=24 / scenecut=40 / intra_refresh=0 / rc_lookahead=60 / rc=2pass / mbtree=0 / bitrate=2951 / ratetol=1.0 / qcomp=0.80 / qpmin=0 / qpmax=69 / qpstep=4 / cplxblur=20.0 / qblur=0.5 / vbv_maxrate=50000 / vbv_bufsize=62500 / nal_hrd=none / filler=0 / ip_ratio=1.40 / pb_ratio=1.30 / aq=1:0.65
Language : English
Default : Yes
Forced : No
Color range : Limited
Color primaries : BT.709
Transfer characteristics : BT.709
Matrix coefficients : BT.709

Audio #1
ID : 2
Format : AC-3
Format/Info : Audio Coding 3
Commercial name : Dolby Digital
Codec ID : A_AC3
Duration : 1 h 33 min
Bit rate mode : Constant
Bit rate : 192 kb/s
Channel(s) : 2 channels
Channel layout : L R
Sampling rate : 48.0 kHz
Frame rate : 31.250 FPS (1536 SPF)
Compression mode : Lossy
Stream size : 129 MiB (6%)
Title : AVO (Андрей Дольский)
Language : Russian
Service kind : Complete Main
Default : Yes
Forced : No

Audio #2
ID : 3
Format : AC-3
Format/Info : Audio Coding 3
Commercial name : Dolby Digital
Codec ID : A_AC3
Duration : 1 h 33 min
Bit rate mode : Constant
Bit rate : 192 kb/s
Channel(s) : 2 channels
Channel layout : L R
Sampling rate : 48.0 kHz
Frame rate : 31.250 FPS (1536 SPF)
Compression mode : Lossy
Stream size : 129 MiB (6%)
Title : AVO (Андрей Гаврилов)
Language : Russian
Service kind : Complete Main
Default : No
Forced : No

Text #1
ID : 4
Format : UTF-8
Codec ID : S_TEXT/UTF8
Codec ID/Info : UTF-8 Plain Text
Duration : 1 h 32 min
Bit rate : 35 b/s
Count of elements : 854
Stream size : 24.2 KiB (0%)
Title : full
Language : English
Default : No
Forced : No

Text #2
ID : 5
Format : UTF-8
Codec ID : S_TEXT/UTF8
Codec ID/Info : UTF-8 Plain Text
Duration : 1 h 32 min
Bit rate : 35 b/s
Count of elements : 854
Stream size : 24.1 KiB (0%)
Title : SDH
Language : English
Default : No
Forced : No

Menu
00:00:00.000 : :Chapter 1
00:09:38.578 : :Chapter 2
00:18:35.114 : :Chapter 3
00:29:50.789 : :Chapter 4
00:40:46.444 : :Chapter 5
00:51:16.073 : :Chapter 6
01:01:13.670 : :Chapter 7
01:10:32.228 : :Chapter 8
01:19:57.793 : :Chapter 9
01:26:17.172 : :Chapter 10
Скриншоты
 

Вложения

  • 88,2 KB Просмотры: 0
    Личеров 0
    Сидеров 0
    Файлов 1
    Объем 2,2 GB

Привет!

Мы группа людей которые решили помочь другим в решении их проблем, а так же пользователям с поиском самых свежих и качественных инфопродуктов. За 4 с небольшим месяца мы создали этот форум на который заходят ежедневно тысячи человек и посещаемость постоянно растёт. Мы создали панель лицензирования для защиты PHP скриптов от воровства и SEO панель для мониторинга наших сайтов и выбора верной стратегии их развития. Мы надеемся что то что мы создали пригодится Вам и возможно Вы поможете нам развиваться и совершенствоваться вместе с Вами.

Статистика форума

Темы
385.369
Сообщения
432.222
Пользователи
66.773
Новый пользователь
Immagi

Приложения форума для iOS и Android


У ркн там нет власти ;)
Приватные разговоры
Помощь Пользователи
    Вы не присоединились ни к одной комнате.