За последнюю неделю опубликовано 120 новых материалов.
Инструкция новичку Путеводитель по форуму Прокси для Telegram Показать подсказки , это бомба!

Скачать Белый тигр / White Tiger (1996) WEB-DL 1080p | A бесплатно через торрент

  • Поучаствуй (в качестве покупателя) в любых пяти совместных покупках (кроме завершённых и "Моментальных") и получи группу "Новичок" навсегда -> ссылка на раздел
  • Получай до 480 рублей за каждого приглашенного пользователя!
    представляем Вам очередное расширение партнерской программы, подробности описаны тут -> ссылка
  • 90% материалов доступно к скачиванию после простой регистрации!
    Если же ты хочешь скачивать материалы без требования оставлять отзывы то получи группу "Новичок", 10 способов повышения описаны тут -> ссылка
  • К сожалению количество битых ссылок растет и мы уже не можем их оперативно восстанавливать поэтому просим помощи у каждого нашего пользователя.
    С сегодняшнего дня, за каждую восстановленную ссылку мы заплатим Вам.
    Подробнее тут -> ссылка
  • Перенесем твои заслуги с другого ресурса!
    Мы понимаем как сложно прокачивать аккаунты на форумах, вроде раскачал аккаунт, а тут появляется ресурс в 100 раз круче но тоже с системой прокачки и снова качать аккаунт...
    Предлагаем вам перенести Ваши заслуги на другом подобном ресурсе к нам.
    Подробности описаны тут -> ссылка
  • Вы можете получать по 2.5% с каждой покупки и продажи на маркете! Подробности в теме Партнёрская программа
Если Вы не хотите скачивать, Вы всегда можетепосмотретьонлайн, просто нажмите кнопку ниже :

Открыть плеер

Torrent_Bot

Торрент-Бот
Бот форума
4 Окт 2016
124
96
20


Информация о фильме
Название: Белый тигр
Оригинальное название: White Tiger
Год выхода: 1995
Жанр: боевик, триллер, драма, криминал
Режиссер: Ричард Мартин
В ролях: Гэри Дэниелс, Мэтт Крэвен, Кэри-Хироюки Тагава, Лиза Ланглуа, Дж. Макс Киришма, Джулия Никсон-Соул, Дэна Ли, Джон Кассини, Джордж Чунг, Бенжамин Рэтнер, Рон Йуан

О фильме: Майк Райан — крутой агент сил специального назначения. В ходе неудачного рейда против дельцов наркобизнеса безжалостно убит его лучший друг и напарник, семья которого была для Майка вторым домом. Он начинаетразыскивать убийцу — короля наркобизнеса из Гонконга Чоу, по кличке «Белый тигр» и в одном из баров Чайнатауна встречает красавицу Джейд, которая соглашантся ему помочь. Распространяются слухи об охоте на «Белого тигра». У наркомафии Гонконга возникают опасения и они отправляют наемного убийцу, чтобы устранить подозрительное звено в своей смертоносной цепи. А Чоу, узнав, что ему пытается отомстить разъяренный полицейский, приказывает Джейд заманить Майка в ловушку. Но он и не подозревает, что убийца, посланный его убрать — это Джейд, и эта западня может оказаться смертельной для него.

Выпущено: Den Pictures Inc. / Evergreen Entertainment, Канада, США
Продолжительность: 01:33:35
Перевод: Авторский (одноголосый закадровый) | Андрей Гаврилов / Андрей Дольский / Павел Санаев




MediaInfo:
General
Уникальный идентификатор : 212065491010255109882464024818463239353 (0x9F8A53F3459567CDB4A44A7AD71F6CB9)
Полное имя : D:/White.Tiger.1996.1080p.AMZN.WEB-DL.3xRus.Eng.Avanpost12-BLUEBIRD.mkv
Формат : Matroska
Версия формата : Version 2
Размер файла : 6.94 GiB
Продолжительность : 1 h 33 min
Общий поток : 10.6 Mb/s
Название фильма : White Tiger (1996)
Дата кодирования : UTC 2020-01-12 20:10:19
Программа кодирования : mkvmerge v7.8.0 ('River Man') 32bit built on Apr 3 2015 12:11:22
Библиотека кодирования : libebml v1.3.1 + libmatroska v1.4.2

Video
Идентификатор : 1
Формат : AVC
Формат/Информация : Advanced Video Codec
Профиль формата : High@L4
Настройки формата : CABAC / 4 Ref Frames
Параметр CABAC формата : Yes
Параметр RefFrames формата : 4 frames
Идентификатор кодека : V_MPEG4/ISO/AVC
Продолжительность : 1 h 33 min
Вид битрейта : Constant
Битрейт : 9 190 kb/s
Номинальный битрейт : 10 000 kb/s
Ширина : 1 920 pixels
Высота : 1 080 pixels
Соотношение сторон : 16:9
Режим частоты кадров : Constant
Частота кадров : 23.976 (24000/1001) FPS
Цветовое пространство : YUV
Субдискретизация насыщенности : 4:2:0
Битовая глубина : 8 bits
Тип развёртки : Progressive
Бит/(Пиксели*Кадры) : 0.185
Размер потока : 6.01 GiB (87%)
Заголовок : Release for BLUEBIRD by Avanpost12
Язык : English
Default : Yes
Forced : No
Цветовой диапазон : Limited
Основные цвета : BT.709
Характеристики трансфера : BT.709
Коэффициенты матрицы : BT.709

Audio #1
Идентификатор : 2
Формат : AC-3
Формат/Информация : Audio Coding 3
Идентификатор кодека : A_AC3
Продолжительность : 1 h 33 min
Вид битрейта : Constant
Битрейт : 192 kb/s
Каналы : 2 channels
Расположение каналов : Front: L R
Частота : 48.0 kHz
Частота кадров : 31.250 FPS (1536 SPF)
Битовая глубина : 16 bits
Метод сжатия : Lossy
Размер потока : 129 MiB (2%)
Заголовок : AVO (Андрей Дольский)
Язык : Russian
ServiceKind/String : Complete Main
Default : Yes
Forced : No

Audio #2
Идентификатор : 3
Формат : AC-3
Формат/Информация : Audio Coding 3
Идентификатор кодека : A_AC3
Продолжительность : 1 h 33 min
Вид битрейта : Constant
Битрейт : 192 kb/s
Каналы : 2 channels
Расположение каналов : Front: L R
Частота : 48.0 kHz
Частота кадров : 31.250 FPS (1536 SPF)
Битовая глубина : 16 bits
Метод сжатия : Lossy
Размер потока : 129 MiB (2%)
Заголовок : AVO (Павел Санаев)
Язык : Russian
ServiceKind/String : Complete Main
Default : No
Forced : No

Audio #3
Идентификатор : 4
Формат : AC-3
Формат/Информация : Audio Coding 3
Идентификатор кодека : A_AC3
Продолжительность : 1 h 33 min
Вид битрейта : Constant
Битрейт : 192 kb/s
Каналы : 2 channels
Расположение каналов : Front: L R
Частота : 48.0 kHz
Частота кадров : 31.250 FPS (1536 SPF)
Битовая глубина : 16 bits
Метод сжатия : Lossy
Размер потока : 129 MiB (2%)
Заголовок : AVO (Андрей Гаврилов)
Язык : Russian
ServiceKind/String : Complete Main
Default : No
Forced : No

Audio #4
Идентификатор : 5
Формат : E-AC-3
Формат/Информация : Enhanced Audio Coding 3
Идентификатор кодека : A_EAC3
Продолжительность : 1 h 33 min
Вид битрейта : Constant
Битрейт : 640 kb/s
Каналы : 6 channels
Расположение каналов : Front: L C R, Side: L R, LFE
Частота : 48.0 kHz
Частота кадров : 187.500 FPS (256 SPF)
Метод сжатия : Lossy
Размер потока : 428 MiB (6%)
Заголовок : Original
Язык : English
ServiceKind/String : Complete Main
Default : No
Forced : No

Text #1
Идентификатор : 6
Формат : UTF-8
Идентификатор кодека : S_TEXT/UTF8
Идентификатор кодека/Информация : UTF-8 Plain Text
Заголовок : full
Язык : English
Default : No
Forced : No

Text #2
Идентификатор : 7
Формат : UTF-8
Идентификатор кодека : S_TEXT/UTF8
Идентификатор кодека/Информация : UTF-8 Plain Text
Заголовок : SDH
Язык : English
Default : No
Forced : No

Menu
00:00:00.000 : en:Chapter 1
00:09:38.578 : en:Chapter 2
00:18:35.114 : en:Chapter 3
00:29:50.789 : en:Chapter 4
00:40:46.444 : en:Chapter 5
00:51:16.073 : en:Chapter 6
01:01:13.670 : en:Chapter 7
01:10:32.228 : en:Chapter 8
01:19:57.793 : en:Chapter 9
01:26:17.172 : en:Chapter 10


Файл
Качество: WEB-DL (1080p)
Видео: MPEG-4 AVC, 9190 Кбит/с, 1920x1080, 23.976 кадр/с
Аудио #1: Русский (AC3, 2 ch, 192 Кбит/с) - Авторский одноголосый (Дольский)
Аудио #2: Русский (AC3, 2 ch, 192 Кбит/с) - Авторский одноголосый (Санаев)
Аудио #3: Русский (AC3, 2 ch, 192 Кбит/с) - Авторский одноголосый (Гаврилов)
Аудио #4: Английский (E-AC3, 6 ch, 640 Кбит/с) - Оригинал

Скриншоты

Релиз от:
 

Вложения

  • 35,7 KB Просмотры: 0
    Личеров 0
    Сидеров 0
    Файлов 1
    Объем 6,9 GB
Ваш e-mail не будет опубликован. Он потребуется для подтверждения Вашего поста.
Оформление текста Нажмите «Ввод», чтобы отправить ответ.

Привет!

Мы группа людей которые решили помочь другим в решении их проблем, а так же пользователям с поиском самых свежих и качественных инфопродуктов. За 4 с небольшим месяца мы создали этот форум на который заходят ежедневно тысячи человек и посещаемость постоянно растёт. Мы создали панель лицензирования для защиты PHP скриптов от воровства и SEO панель для мониторинга наших сайтов и выбора верной стратегии их развития. Мы надеемся что то что мы создали пригодится Вам и возможно Вы поможете нам развиваться и совершенствоваться вместе с Вами.

Статистика форума

Темы
378.776
Сообщения
418.225
Пользователи
50.077
Новый пользователь
Krot_75409

Приложения форума для iOS и Android


У ркн там нет власти ;)
Приватные разговоры
Помощь Пользователи
    Вы не присоединились ни к одной комнате.