За последнюю неделю опубликовано 57 новых материалов.
Инструкция новичку Путеводитель по форуму Прокси для Telegram Показать подсказки , это бомба!

Скачать Белый шквал / White Squall (1996) BDRip 720p от MediaClub | P, A бесплатно через торрент

  • Поучаствуй (в качестве покупателя) в любых пяти совместных покупках (кроме завершённых и "Моментальных") и получи группу "Новичок" навсегда -> ссылка на раздел
  • Получай до 480 рублей за каждого приглашенного пользователя!
    представляем Вам очередное расширение партнерской программы, подробности описаны тут -> ссылка
  • 90% материалов доступно к скачиванию после простой регистрации!
    Если же ты хочешь скачивать материалы без требования оставлять отзывы то получи группу "Новичок", 10 способов повышения описаны тут -> ссылка
  • К сожалению количество битых ссылок растет и мы уже не можем их оперативно восстанавливать поэтому просим помощи у каждого нашего пользователя.
    С сегодняшнего дня, за каждую восстановленную ссылку мы заплатим Вам.
    Подробнее тут -> ссылка
  • Перенесем твои заслуги с другого ресурса!
    Мы понимаем как сложно прокачивать аккаунты на форумах, вроде раскачал аккаунт, а тут появляется ресурс в 100 раз круче но тоже с системой прокачки и снова качать аккаунт...
    Предлагаем вам перенести Ваши заслуги на другом подобном ресурсе к нам.
    Подробности описаны тут -> ссылка
  • Вы можете получать по 2.5% с каждой покупки и продажи на маркете! Подробности в теме Партнёрская программа
Если Вы не хотите скачивать, Вы всегда можетепосмотретьонлайн, просто нажмите кнопку ниже :

Открыть плеер

Torrent_Bot

Торрент-Бот
Бот форума
4 Окт 2016
92
163
20



Информация о фильме
Название: Белый шквал
Оригинальное название: White Squall
Год выпуска: 1996
Жанр:Драма, приключения
Режиссер: Ридли Скотт
В ролях: Джефф Бриджес, Кэролайн Гудолл, Джон Сэвидж, Скотт Вулф, Джереми Систо, Райан Филипп, Дэвид Лэшер, Эрик Майкл Коул, Джейсон Мэрсден, Дэвид Селби, Хулио Оскар Мечосо, Желько Иванек, Бальтазар Гетти, Итэн Эмбри, Джордан Кларк, Лизбет Маккей, Джилл Ларсон, Джеймс Медина, Джеймс Ребхорн, Николь Энн Сэмюэл, Бекки Энн Бэйкер

О фильме: На грани между Жизнью и Смертью рождается мужской характер. Осенью 1960 года парусная бригантина «Альбатрос» под руководством капитана Кристофера Шелдона ушла в кругосветное плавание. Оно могло бы стать чуть ли не круизом, если бы проходило при тихой погоде. Но мальчишки, заканчивавшие на борту «Альбатроса» обучение в Океанской академии, знали, сколь обманчивым любит прикидываться океан. Они знали, что в шторм океан перестает быть безбрежным: многометровые волны окружают небольшой кораблик в жажде раздавить его, и куда ни бросишь взгляд — всюду только стена, громадная стена воды...



Страна: США
Студия: Hollywood Pictures, Largo Entertainment, Scott Free Productions
Продолжительность: 02:08:57
Перевод: Профессиональный многоголосый, авторский одноголосый

Файл
Кодек: x264
Качество: BDRip 720p
Видео: MPEG-4 AVC, 5218 Кбит/с, 1280x548, 23.976 кадр/с
Аудио #1: Русский (AC3, 6 ch, 448 Кбит/с) / Профессиональный многоголосый
Аудио #2: Русский (AC3, 6 ch, 448 Кбит/с) / Авторский одноголосый (Андрей Гаврилов)
Аудио #3: Английский (DTS, 6 ch, 755 Кбит/с)
Субтитры: Русские, английские

Семпл

MI
x264 [info]: frame I:1507 Avg QP:16.29 size: 86784
x264 [info]: frame P:42842 Avg QP:18.73 size: 45233
x264 [info]: frame B:141168 Avg QP:20.44 size: 21090

=============================================

Уникальный идентификатор : 210829391636837149328202701525717404736 (0x9E9C438BBDC51F888902A5D94410CC40)
Полное имя : E:MCBeliy.schkval.1996.x264.BDRip(720p)-MediaClubBeliy.schkval.1996.x264.BDRip(720p)-MediaClub.mkv
Формат : Matroska
Версия формата : Version 4 / Version 2
Размер файла : 6,19 Гбайт
Продолжительность : 2 ч. 8 м.
Общий поток : 6870 Кбит/сек
Название фильма : -= Release MediaClub =-
Дата кодирования : UTC 2014-02-27 17:56:14
Программа кодирования : mkvmerge v6.4.1 ('Omega Point') built on Sep 16 2013 22:05:10
Библиотека кодирования : libebml v1.3.0 + libmatroska v1.4.1

Видео
Идентификатор : 1
Формат : AVC
Формат/Информация : Advanced Video Codec
Профиль формата : [email protected]
Параметр CABAC формата : Да
Параметр ReFrames формата : 8 кадров
Идентификатор кодека : V_MPEG4/ISO/AVC
Продолжительность : 2 ч. 8 м.
Битрейт : 5218 Кбит/сек
Ширина : 1280 пикселей
Высота : 548 пикселей
Соотношение сторон : 2,35:1
Режим частоты кадров : Постоянный
Частота кадров : 23,976 кадра/сек
Цветовое пространство : YUV
Субдискретизация насыщенности : 4:2:0
Битовая глубина : 8 бит
Тип развёртки : Прогрессивная
Бит/(Пиксели*Кадры) : 0.310
Размер потока : 4,58 Гбайт (74%)
Заголовок : Beliy.schkval.1996.x264.BDRip(720p)-neni
Библиотека кодирования : x264 core 130 r2273 b3065e6
Настройки программы : cabac=1 / ref=8 / deblock=1:-3:-3 / analyse=0x3:0x113 / me=umh / subme=11 / psy=1 / psy_rd=1.00:0.15 / mixed_ref=1 / me_range=48 / chroma_me=1 / trellis=2 / 8x8dct=1 / cqm=0 / deadzone=21,11 / fast_pskip=0 / chroma_qp_offset=-3 / threads=9 / lookahead_threads=1 / sliced_threads=0 / nr=0 / decimate=0 / interlaced=0 / bluray_compat=0 / constrained_intra=0 / bframes=8 / b_pyramid=2 / b_adapt=2 / b_bias=0 / direct=3 / weightb=1 / open_gop=0 / weightp=2 / keyint=240 / keyint_min=23 / scenecut=40 / intra_refresh=0 / rc=2pass / mbtree=0 / bitrate=5218 / ratetol=1.0 / qcomp=0.60 / qpmin=0 / qpmax=69 / qpstep=4 / cplxblur=20.0 / qblur=0.5 / ip_ratio=1.40 / pb_ratio=1.30 / aq=2:1.20
Язык : English
Default : Да
Forced : Да

Аудио #1
Идентификатор : 2
Формат : AC-3
Формат/Информация : Audio Coding 3
Расширение режима : CM (complete main)
Параметр Endianness формата : Big
Идентификатор кодека : A_AC3
Продолжительность : 2 ч. 8 м.
Вид битрейта : Постоянный
Битрейт : 448 Кбит/сек
Каналы : 6 каналов
Расположение каналов : Front: L C R, Side: L R, LFE
Частота : 48,0 КГц
Битовая глубина : 16 бит
Метод сжатия : С потерями
Размер потока : 413 Мбайт (7%)
Заголовок : MVO [AC3 [email protected]]
Язык : Russian
Default : Да
Forced : Да

Аудио #2
Идентификатор : 3
Формат : AC-3
Формат/Информация : Audio Coding 3
Расширение режима : CM (complete main)
Параметр Endianness формата : Big
Идентификатор кодека : A_AC3
Продолжительность : 2 ч. 8 м.
Вид битрейта : Постоянный
Битрейт : 448 Кбит/сек
Каналы : 6 каналов
Расположение каналов : Front: L C R, Side: L R, LFE
Частота : 48,0 КГц
Битовая глубина : 16 бит
Метод сжатия : С потерями
Размер потока : 413 Мбайт (7%)
Заголовок : AVO {А. Гаврилов} [AC3 [email protected]]
Язык : Russian
Default : Нет
Forced : Нет

Аудио #3
Идентификатор : 4
Формат : DTS
Формат/Информация : Digital Theater Systems
Режим : 16
Параметр Endianness формата : Big
Идентификатор кодека : A_DTS
Продолжительность : 2 ч. 8 м.
Вид битрейта : Постоянный
Битрейт : 755 Кбит/сек
Каналы : 6 каналов
Расположение каналов : Front: L C R, Side: L R, LFE
Частота : 48,0 КГц
Битовая глубина : 24 бит
Метод сжатия : С потерями
Размер потока : 696 Мбайт (11%)
Заголовок : Original
Язык : English
Default : Нет
Forced : Нет

Текст #1
Идентификатор : 5
Формат : UTF-8
Идентификатор кодека : S_TEXT/UTF8
Идентификатор кодека/Информация : UTF-8 Plain Text
Заголовок : Full
Язык : Russian
Default : Нет
Forced : Нет

Текст #2
Идентификатор : 6
Формат : UTF-8
Идентификатор кодека : S_TEXT/UTF8
Идентификатор кодека/Информация : UTF-8 Plain Text
Заголовок : Full
Язык : English
Default : Нет
Forced : Нет

Меню
00:00:00.000 : en:program Start/Opening Credits
00:09:55.595 : en:Getting Acquainted
00:20:49.123 : en:See You on the Deck
00:33:26.171 : en:First Lesson
00:41:45.044 : en:Facing Fear
00:54:17.963 : en:All Stop on Engines
01:05:35.974 : en:Contributing to the Cause
01:17:04.870 : en:Jfk Speaks
01:29:37.998 : en:Caught Cheating
01:45:52.263 : en:Cruising Girls
01:51:59.588 : en:party Poop
02:05:30.022 : en:Dolphins Off the Stern
Благодарность
За постер, огромное спасибо команде Media-Art-Club!!!
Скриншоты



Релиз от: Rip by
 

Вложения

  • 16,7 KB Просмотры: 0
    Личеров 0
    Сидеров 0
    Файлов 1
    Объем 6,2 GB

Привет!

Мы группа людей которые решили помочь другим в решении их проблем, а так же пользователям с поиском самых свежих и качественных инфопродуктов. За 4 с небольшим месяца мы создали этот форум на который заходят ежедневно тысячи человек и посещаемость постоянно растёт. Мы создали панель лицензирования для защиты PHP скриптов от воровства и SEO панель для мониторинга наших сайтов и выбора верной стратегии их развития. Мы надеемся что то что мы создали пригодится Вам и возможно Вы поможете нам развиваться и совершенствоваться вместе с Вами.

Статистика форума

Темы
406.699
Сообщения
465.163
Пользователи
84.815
Новый пользователь
людоед

Приложения форума для iOS и Android


У ркн там нет власти ;)
Приватные разговоры
Помощь Пользователи
    Вы не присоединились ни к одной комнате.