За последнюю неделю опубликовано 0 новых материалов.
Инструкция новичку Путеводитель по форуму Прокси для Telegram Показать подсказки , это бомба!

Скачать Белый мавр, или Интимные истории о моих соседях (2012) WEB-DL 720p бесплатно через торрент

  • Поучаствуй (в качестве покупателя) в любых пяти совместных покупках (кроме завершённых и "Моментальных") и получи группу "Новичок" навсегда -> ссылка на раздел
  • Получай до 480 рублей за каждого приглашенного пользователя!
    представляем Вам очередное расширение партнерской программы, подробности описаны тут -> ссылка
  • 90% материалов доступно к скачиванию после простой регистрации!
    Если же ты хочешь скачивать материалы без требования оставлять отзывы то получи группу "Новичок", 10 способов повышения описаны тут -> ссылка
  • К сожалению количество битых ссылок растет и мы уже не можем их оперативно восстанавливать поэтому просим помощи у каждого нашего пользователя.
    С сегодняшнего дня, за каждую восстановленную ссылку мы заплатим Вам.
    Подробнее тут -> ссылка
  • Перенесем твои заслуги с другого ресурса!
    Мы понимаем как сложно прокачивать аккаунты на форумах, вроде раскачал аккаунт, а тут появляется ресурс в 100 раз круче но тоже с системой прокачки и снова качать аккаунт...
    Предлагаем вам перенести Ваши заслуги на другом подобном ресурсе к нам.
    Подробности описаны тут -> ссылка
  • Вы можете получать по 2.5% с каждой покупки и продажи на маркете! Подробности в теме Партнёрская программа
Если Вы не хотите скачивать, Вы всегда можетепосмотретьонлайн, просто нажмите кнопку ниже :

Открыть плеер

Torrent_Bot

Торрент-Бот
Бот форума
4 Окт 2016
79
196
20

Информация о фильме
Название: Белый мавр, или Интимные истории о моих соседях
Год выхода: 2012
Жанр: драма, комедия
Режиссер: Дмитрий Фикс
В ролях: Вячеслав Разбегаев, Галина Петрова, Андрей Соколов, Сергей Астахов, Александр Галибин, Екатерина Стриженова, Эвклид Кюрдзидис, Жанна Эппле, Игорь Верник, Олеся Железняк, Анна Якунина, Евгения Морозова, Полина Райкина

Слоган: «Им есть что скрывать»

О фильме: Это ироничная, местами откровенно смешная и в тоже время грустная история о буднях так называемого «верхнего среднего класса» — воспетой в Америке Вуди Алленом, но пока еще весьма малочисленной в нашей стране прослойке состоятельных граждан. Помимо завидного достатка, всех этих погрязших в экзистенциальных сомнениях и банальных адюльтерах бизнесменов, кинозвезд, модных режиссеров, хозяев стоматологических клиник и их прекрасных жен объединяет еще и звонкое пионерское прошлое, преодолеть которое подчас оказывается гораздо сложнее, чем отгрохать особняк на Новой Риге…



Страна: Россия / Мотор Фильм Студия
Продолжительность: 01:36:18
Перевод: Оригинал

Файл
Качество: WEB-DL 720p
Формат: MKV
Видео: AVC, 2944 Kb/s, 1280x696
Звук: AC3, 192 Kb/s (2ch)
Субтитры: нет


Релиз от:
MediaInfo:
Format : Matroska
Format version : Version 4 / Version 2
File size : 2.11 GiB
Duration : 1 h 36 min
Overall bit rate : 3 138 kb/s
Movie name : Rip by basma4i
Encoded date : UTC 2016-08-14 08:13:17
Writing application : mkvmerge v9.3.1 ('Mask Machine') 64bit
Writing library : libebml v1.3.4 + libmatroska v1.4.5 / Lavf56.25.101

Video
ID : 1
Format : AVC
Format/Info : Advanced Video Codec
Format profile : [email protected]
Format settings, CABAC : Yes
Format settings, ReFrames : 1 frame
Codec ID : V_MPEG4/ISO/AVC
Duration : 1 h 36 min
Bit rate : 2 944 kb/s
Width : 1 280 pixels
Height : 696 pixels
Display aspect ratio : 1.85:1
Frame rate mode : Constant
Frame rate : 25.000 FPS
Color space : YUV
Chroma subsampling : 4:2:0
Bit depth : 8 bits
Scan type : Progressive
Bits/(Pixel*Frame) : 0.132
Stream size : 1.98 GiB (94%)
Language : Russian
Default : Yes
Forced : No

Audio
ID : 2
Format : AC-3
Format/Info : Audio Coding 3
Mode extension : CM (complete main)
Format settings, Endianness : Big
Codec ID : A_AC3
Duration : 1 h 36 min
Bit rate mode : Constant
Bit rate : 192 kb/s
Channel(s) : 2 channels
Channel positions : Front: L R
Sampling rate : 44.1 kHz
Frame rate : 28.711 FPS (1536 spf)
Compression mode : Lossy
Stream size : 132 MiB (6%)
Language : Russian
Default : Yes
Forced : No
Скриншоты
 

Вложения

  • 11,8 KB Просмотры: 0
    Личеров 0
    Сидеров 0
    Файлов 1
    Объем 2,1 GB

Привет!

Мы группа людей которые решили помочь другим в решении их проблем, а так же пользователям с поиском самых свежих и качественных инфопродуктов. За 4 с небольшим месяца мы создали этот форум на который заходят ежедневно тысячи человек и посещаемость постоянно растёт. Мы создали панель лицензирования для защиты PHP скриптов от воровства и SEO панель для мониторинга наших сайтов и выбора верной стратегии их развития. Мы надеемся что то что мы создали пригодится Вам и возможно Вы поможете нам развиваться и совершенствоваться вместе с Вами.

Статистика форума

Темы
414.370
Сообщения
475.396
Пользователи
96.561
Новый пользователь
starushka

Приложения форума для iOS и Android


У ркн там нет власти ;)
Приватные разговоры
Помощь Пользователи
    Вы не присоединились ни к одной комнате.