За последнюю неделю опубликовано 101 новых материалов.
Инструкция новичку Путеводитель по форуму Прокси для Telegram Показать подсказки , это бомба!

Скачать Белые росы. Возвращение / Белые Росы 2 (2014) DVB от AND03AND бесплатно через торрент

  • Поучаствуй (в качестве покупателя) в любых пяти совместных покупках (кроме завершённых и "Моментальных") и получи группу "Новичок" навсегда -> ссылка на раздел
  • Получай до 480 рублей за каждого приглашенного пользователя!
    представляем Вам очередное расширение партнерской программы, подробности описаны тут -> ссылка
  • 90% материалов доступно к скачиванию после простой регистрации!
    Если же ты хочешь скачивать материалы без требования оставлять отзывы то получи группу "Новичок", 10 способов повышения описаны тут -> ссылка
  • К сожалению количество битых ссылок растет и мы уже не можем их оперативно восстанавливать поэтому просим помощи у каждого нашего пользователя.
    С сегодняшнего дня, за каждую восстановленную ссылку мы заплатим Вам.
    Подробнее тут -> ссылка
  • Перенесем твои заслуги с другого ресурса!
    Мы понимаем как сложно прокачивать аккаунты на форумах, вроде раскачал аккаунт, а тут появляется ресурс в 100 раз круче но тоже с системой прокачки и снова качать аккаунт...
    Предлагаем вам перенести Ваши заслуги на другом подобном ресурсе к нам.
    Подробности описаны тут -> ссылка
  • Вы можете получать по 2.5% с каждой покупки и продажи на маркете! Подробности в теме Партнёрская программа
Если Вы не хотите скачивать, Вы всегда можетепосмотретьонлайн, просто нажмите кнопку ниже :

Открыть плеер

Torrent_Bot

Торрент-Бот
Бот форума
4 Окт 2016
102
153
20
Информация о фильме
Название: Белые росы. Возвращение / Белые Росы 2
Год выхода: 2014
Жанр: Комедия, Мелодрама
Режиссер: Александра Бутор
В ролях: Юозас Будрайтис, Виктор Манаев, Павел Южаков-Харланчук, Сергей Жбанков, Ирина Егорова, Андрей Мерзликин, Анна Полупанова, Евгения Жукович, Юлия Смирнова, Татьяна Гаркуша, Николай Караченцов, Жорж Девдариани, Анатолий Голуб, Вера Полякова, Максим Пониматченко, Павел Адамчиков, Галина Кухальская

О фильме:
Продолжение знаменитого фильма 1983 года "Белые росы" (реж.И.Добролюбов).

Пожив в городе, Андрей Ходас возвращается к земле и селится на хуторе. Однако стремительно разрастающийся город настигает его и здесь. Пара молодых и энергичных бизнесменов намерена выкупить живописный уголок для нового строительства и пытается выселить его немногочисленных обитателей. Спасая свой хрупкий мир от вторжения и разрушений, Андрей помогает всей семье вспомнить о своих корнях и распутать проблемы, казавшиеся неразрешимыми в суетливой атмосфере городской жизни.

Доп. информация:
Сценаристы: Алексей Дударев, Александра Бутор, Юлия Гирель
Оператор: Олег Гирель
Композитор: Владимир Кондрусевич
Художники: Михаил Кузьмин, Вадим Шафранский
Производство: Беларусьфильм
Премьера: 6 сентября 2014 (кинофестиваль "Московская премьера")



Запись потока *.ts с наземного цифрового телеканала "СТВ".

Плакаты

Благодарность: за помощь с недостающим материалом Bartimeyse и PavelDAS. Обоим большое спасибо!

Страна: Республика Беларусь
Студия: Беларусьфильм
Продолжительность: 01:40:24
Перевод: не требует

Файл
Кодек: AVC (H264)
Качество: DVB
Видео: MPEG4 Video (H264) 720(785)x576 (49:36) 25fps, 2 360 kb/s
Звук: MPEG Audio 48000Hz stereo 256kbps

MediaInfo
General
ID : 1 (0x1)
Complete name : D:Новая земля 2Художественные фильмыБелые росы. Возвращение (2014)Белые росы. Возвращение (2014).ts
Format : MPEG-TS
File size : 1.93 GiB
Duration : 1 h 40 min
Overall bit rate mode : Variable
Overall bit rate : 2 755 kb/s

Video
ID : 81 (0x51)
Menu ID : 80 (0x50)
Format : AVC
Format/Info : Advanced Video Codec
Format profile : Main@L3
Format settings, CABAC : Yes
Format settings, ReFrames : 4 frames
Format settings, GOP : M=4, N=24
Codec ID : 27
Duration : 1 h 40 min
Bit rate : 2 360 kb/s
Width : 720 pixels
Height : 576 pixels
Display aspect ratio : 4:3
Frame rate : 25.000 FPS
Standard : PAL
Color space : YUV
Chroma subsampling : 4:2:0
Bit depth : 8 bits
Scan type : MBAFF
Scan type, store method : Separated fields
Scan order : Top Field First
Bits/(Pixel*Frame) : 0.228
Stream size : 1.66 GiB (86%)
Color range : Limited
Color primaries : BT.601 PAL
Transfer characteristics : BT.470 System B, BT.470 System G
Matrix coefficients : BT.601

Audio
ID : 84 (0x54)
Menu ID : 80 (0x50)
Format : MPEG Audio
Format version : Version 1
Format profile : Layer 2
Codec ID : 3
Duration : 1 h 40 min
Bit rate mode : Constant
Bit rate : 256 kb/s
Channel(s) : 2 channels
Sampling rate : 48.0 kHz
Compression mode : Lossy
Stream size : 184 MiB (9%)
Language : English

Скриншот c названием фильма

Семпл

Скриншоты
 

Вложения

  • 21,6 KB Просмотры: 0
    Личеров 0
    Сидеров 0
    Файлов 1
    Объем 1,9 GB

Привет!

Мы группа людей которые решили помочь другим в решении их проблем, а так же пользователям с поиском самых свежих и качественных инфопродуктов. За 4 с небольшим месяца мы создали этот форум на который заходят ежедневно тысячи человек и посещаемость постоянно растёт. Мы создали панель лицензирования для защиты PHP скриптов от воровства и SEO панель для мониторинга наших сайтов и выбора верной стратегии их развития. Мы надеемся что то что мы создали пригодится Вам и возможно Вы поможете нам развиваться и совершенствоваться вместе с Вами.

Статистика форума

Темы
404.614
Сообщения
461.523
Пользователи
80.369
Новый пользователь
Карина1213

Приложения форума для iOS и Android


У ркн там нет власти ;)
Приватные разговоры
Помощь Пользователи
    Вы не присоединились ни к одной комнате.