За последнюю неделю опубликовано 44 новых материалов.
Инструкция новичку Путеводитель по форуму Прокси для Telegram Показать подсказки , это бомба!

Скачать Бэтмен возвращается / Batman Returns (1992) UHD BDRemux 2160p от селезень | 4K | HDR | Лицензия бесплатно через торрент

  • Поучаствуй (в качестве покупателя) в любых пяти совместных покупках (кроме завершённых и "Моментальных") и получи группу "Новичок" навсегда -> ссылка на раздел
  • Получай до 480 рублей за каждого приглашенного пользователя!
    представляем Вам очередное расширение партнерской программы, подробности описаны тут -> ссылка
  • 90% материалов доступно к скачиванию после простой регистрации!
    Если же ты хочешь скачивать материалы без требования оставлять отзывы то получи группу "Новичок", 10 способов повышения описаны тут -> ссылка
  • К сожалению количество битых ссылок растет и мы уже не можем их оперативно восстанавливать поэтому просим помощи у каждого нашего пользователя.
    С сегодняшнего дня, за каждую восстановленную ссылку мы заплатим Вам.
    Подробнее тут -> ссылка
  • Перенесем твои заслуги с другого ресурса!
    Мы понимаем как сложно прокачивать аккаунты на форумах, вроде раскачал аккаунт, а тут появляется ресурс в 100 раз круче но тоже с системой прокачки и снова качать аккаунт...
    Предлагаем вам перенести Ваши заслуги на другом подобном ресурсе к нам.
    Подробности описаны тут -> ссылка
  • Вы можете получать по 2.5% с каждой покупки и продажи на маркете! Подробности в теме Партнёрская программа
Если Вы не хотите скачивать, Вы всегда можетепосмотретьонлайн, просто нажмите кнопку ниже :

Открыть плеер

Torrent_Bot

Торрент-Бот
Бот форума
4 Окт 2016
90
168
20


Информация о фильме
Название: Бэтмен возвращается
Оригинальное название: Batman Returns
Год выхода: 1992
Жанр: Фэнтези, боевик, комикс, супергерой
Режиссер: Тим Бёртон
В ролях: Майкл Китон, Дэнни ДеВито, Мишель Пфайффер, Кристофер Уокен, Эндрю Бринярски, Майкл Гоф, Даг Джонс, Анна Катарина, Кристи Конэуэй, Пэт Хингл, Стюарт Ланкастер, Винсент Скьявелли, Трэвис МакКенна, Джен Хукс, Майкл Мёрфи, Эрик Онатэ, Брэнском Ричмонд, Пол Рубенс, Дайан Салинджер, Стив Уиттинг, Кэл Хоффман



О фильме: Экранизация по мотивам комиксов о Бэтмене. Человек-Пингвин решает захватить власть в городе. Для этого он организовывает союз с крупным промышленником сомнительных моральных качеств — Максом Шреком. В то же самое время Макс Шрек выбрасывает из окна свою слишком любопытную секретаршу Селину Кайл, которая от полученных травм умирает, но её возвращают к жизни уличные кошки. Очнувшись, она понимает, что полностью изменилась и стала человеком-кошкой. Задавшись целью отомстить Максу Шреку, она называется Женщиной-кошкой и отправляется на улицы Готэма. И только Бэтмен и комиссар Гордон продолжают воевать с преступниками...

Страна: США, Великобритания
Студия: PolyGram Filmed Entertainment, Warner Bros. Pictures
Продолжительность: 02:06:27
Перевод: Дублированный | Лицензия

Качество: BDRemux 2160p
Видео: MPEG-H HEVC HDR Video, 3840x2160, 71700 Kbit/s, 23.976 fps
Звук:
Аудио #01: 48 kHz, AC3, 5.1, 384 Kbps | Лицензия | RUS |
Аудио #02: 48 kHz, TrueHD, 7.1, 4071 Kbps | Оригинал | ENG |
Аудио #03: 48 kHz, AC3, 5.1, 640 Kbps | Оригинал | ENG |
Субтитры: Русские (full), английские



MI
General
Unique ID : 335304476296616340839441060704474878857 (0xFC414B0B22D740D4AB1D8B8BA3D7D389)
Complete name : D:Video111Batman.Returns.1992.BDREMUX.2160p.HDR.seleZen.mkv
Format : Matroska
Format version : Version 4
File size : 68.0 GiB
Duration : 2 h 6 min
Overall bit rate mode : Variable
Overall bit rate : 76.9 Mb/s
Movie name : Batman Returns 1992 4K from селезень
Encoded date : UTC 2019-06-02 03:34:05
Writing application : mkvmerge v33.1.0 ('Primrose') 64-bit
Writing library : libebml v1.3.7 + libmatroska v1.5.0

Video
ID : 1
Format : HEVC
Format/Info : High Efficiency Video Coding
Format profile : Main [email protected]@High
HDR format : SMPTE ST 2086, HDR10 compatible
Codec ID : V_MPEGH/ISO/HEVC
Duration : 2 h 6 min
Bit rate : 71.7 Mb/s
Width : 3 840 pixels
Height : 2 160 pixels
Display aspect ratio : 16:9
Frame rate mode : Constant
Frame rate : 23.976 (24000/1001) FPS
Color space : YUV
Chroma subsampling : 4:2:0 (Type 2)
Bit depth : 10 bits
Bits/(Pixel*Frame) : 0.361
Stream size : 63.3 GiB (93%)
Writing library : ATEME Titan File 3.9.0 (4.9.0.0)
Language : English
Default : Yes
Forced : No
Color range : Limited
Color primaries : BT.2020
Transfer characteristics : PQ
Matrix coefficients : BT.2020 non-constant
Mastering display color pri : Display P3
Mastering display luminance : min: 0.0050 cd/m2, max: 4000 cd/m2
Maximum Content Light Level : 1993 cd/m2
Maximum Frame-Average Light : 311 cd/m2

Audio #1
ID : 2
Format : AC-3
Format/Info : Audio Coding 3
Commercial name : Dolby Digital
Codec ID : A_AC3
Duration : 2 h 6 min
Bit rate mode : Constant
Bit rate : 448 kb/s
Channel(s) : 6 channels
Channel layout : L R C LFE Ls Rs
Sampling rate : 48.0 kHz
Frame rate : 31.250 FPS (1536 SPF)
Bit depth : 16 bits
Compression mode : Lossy
Stream size : 405 MiB (1%)
Title : Dub [License]
Language : Russian
Service kind : Complete Main
Default : Yes
Forced : Yes

Audio #2
ID : 3
Format : MLP FBA 16-ch
Format/Info : Meridian Lossless Packing FBA with 16-channel presentation
Commercial name : Dolby TrueHD with Dolby Atmos
Codec ID : A_TRUEHD
Duration : 2 h 6 min
Bit rate mode : Variable
Bit rate : 4 071 kb/s
Maximum bit rate : 7 407 kb/s
Channel(s) : 8 channels
Channel layout : L R C LFE Ls Rs Lb Rb
Sampling rate : 48.0 kHz
Frame rate : 1 200.000 FPS (40 SPF)
Compression mode : Lossless
Delay relative to video : 32 ms
Stream size : 3.60 GiB (5%)
Title : Original
Language : English
Default : No
Forced : No
Number of dynamic objects : 15
Bed channel count : 1 channel
Bed channel configuration : LFE

Audio #3
ID : 4
Format : AC-3
Format/Info : Audio Coding 3
Commercial name : Dolby Digital
Codec ID : A_AC3
Duration : 2 h 6 min
Bit rate mode : Constant
Bit rate : 640 kb/s
Channel(s) : 6 channels
Channel layout : L R C LFE Ls Rs
Sampling rate : 48.0 kHz
Frame rate : 31.250 FPS (1536 SPF)
Bit depth : 16 bits
Compression mode : Lossy
Delay relative to video : 31 ms
Stream size : 579 MiB (1%)
Language : English
Service kind : Complete Main
Default : No
Forced : No

Text #1
ID : 5
Format : UTF-8
Codec ID : S_TEXT/UTF8
Codec ID/Info : UTF-8 Plain Text
Duration : 1 h 58 min
Bit rate : 57 b/s
Count of elements : 1052
Stream size : 49.5 KiB (0%)
Title : Full
Language : Russian
Default : No
Forced : No

Text #2
ID : 6
Format : UTF-8
Codec ID : S_TEXT/UTF8
Codec ID/Info : UTF-8 Plain Text
Duration : 2 h 5 min
Bit rate : 39 b/s
Count of elements : 1136
Stream size : 36.6 KiB (0%)
Title : SDH
Language : English
Default : No
Forced : No

Menu
00:00:00.000 : :Глава 01
00:02:23.059 : :Глава 02
00:05:30.371 : :Глава 03
00:07:09.846 : :Глава 04
00:09:22.520 : :Глава 05
00:12:47.767 : :Глава 06
00:17:12.865 : :Глава 07
00:23:11.264 : :Глава 08
00:25:18.725 : :Глава 09
00:28:30.125 : :Глава 10
00:33:50.862 : :Глава 11
00:40:26.674 : :Глава 12
00:43:03.872 : :Глава 13
00:44:11.982 : :Глава 14
00:48:31.033 : :Глава 15
00:54:08.078 : :Глава 16
00:55:47.719 : :Глава 17
00:57:59.601 : :Глава 18
00:59:43.997 : :Глава 19
01:02:15.440 : :Глава 20
01:07:47.438 : :Глава 21
01:10:01.780 : :Глава 22
01:13:08.759 : :Глава 23
01:18:00.050 : :Глава 24
01:20:42.254 : :Глава 25
01:22:29.361 : :Глава 26
01:26:43.823 : :Глава 27
01:31:44.707 : :Глава 28
01:33:47.288 : :Глава 29
01:38:13.596 : :Глава 30
01:40:38.449 : :Глава 31
01:42:43.532 : :Глава 32
01:44:08.325 : :Глава 33
01:48:42.557 : :Глава 34
01:50:45.430 : :Глава 35
01:53:55.912 : :Глава 36
01:55:46.230 : :Глава 37
01:58:21.677 : :Глава 38
02:00:51.285 : :Глава 39

Релиз:

 

Вложения

  • 85,9 KB Просмотры: 1
    Личеров 0
    Сидеров 0
    Файлов 1
    Объем 68 GB

Привет!

Мы группа людей которые решили помочь другим в решении их проблем, а так же пользователям с поиском самых свежих и качественных инфопродуктов. За 4 с небольшим месяца мы создали этот форум на который заходят ежедневно тысячи человек и посещаемость постоянно растёт. Мы создали панель лицензирования для защиты PHP скриптов от воровства и SEO панель для мониторинга наших сайтов и выбора верной стратегии их развития. Мы надеемся что то что мы создали пригодится Вам и возможно Вы поможете нам развиваться и совершенствоваться вместе с Вами.

Статистика форума

Темы
410.952
Сообщения
469.378
Пользователи
88.409
Новый пользователь
Kirk_139

Приложения форума для iOS и Android


У ркн там нет власти ;)
Приватные разговоры
Помощь Пользователи
    Вы не присоединились ни к одной комнате.