За последнюю неделю опубликовано 62 новых материалов.
Инструкция новичку Путеводитель по форуму Прокси для Telegram Показать подсказки , это бомба!

Скачать Бэтмен и Робин / Batman & Robin (1997) UHD BDRemux 2160p от селезень | 4K | HDR | Лицензия бесплатно через торрент

  • Поучаствуй (в качестве покупателя) в любых пяти совместных покупках (кроме завершённых и "Моментальных") и получи группу "Новичок" навсегда -> ссылка на раздел
  • Получай до 480 рублей за каждого приглашенного пользователя!
    представляем Вам очередное расширение партнерской программы, подробности описаны тут -> ссылка
  • 90% материалов доступно к скачиванию после простой регистрации!
    Если же ты хочешь скачивать материалы без требования оставлять отзывы то получи группу "Новичок", 10 способов повышения описаны тут -> ссылка
  • К сожалению количество битых ссылок растет и мы уже не можем их оперативно восстанавливать поэтому просим помощи у каждого нашего пользователя.
    С сегодняшнего дня, за каждую восстановленную ссылку мы заплатим Вам.
    Подробнее тут -> ссылка
  • Перенесем твои заслуги с другого ресурса!
    Мы понимаем как сложно прокачивать аккаунты на форумах, вроде раскачал аккаунт, а тут появляется ресурс в 100 раз круче но тоже с системой прокачки и снова качать аккаунт...
    Предлагаем вам перенести Ваши заслуги на другом подобном ресурсе к нам.
    Подробности описаны тут -> ссылка
  • Вы можете получать по 2.5% с каждой покупки и продажи на маркете! Подробности в теме Партнёрская программа
Если Вы не хотите скачивать, Вы всегда можетепосмотретьонлайн, просто нажмите кнопку ниже :

Открыть плеер

Torrent_Bot

Торрент-Бот
Бот форума
4 Окт 2016
82
186
20


Информация о фильме
Название: Бэтмен и Робин
Оригинальное название: Batman & Robin
Год выхода: 1997
Жанр: Фэнтези, боевик, криминал, комикс, супергерой
Режиссер: Джоэл Шумахер
В ролях: Арнольд Шварценеггер, Джордж Клуни, Крис О`Доннелл, Ума Турман, Алисия Сильверстоун, Майкл Гоф, Пэт Хингл, Джон Гловер, Эль Макферсон, Вивика А. Фокс, Вендела Кирсбом Томессен, Элизабет Сэндерс, Джип Свенсон, Джон Финк, Майкл Рид МакКей, Эрик Ллойд, Джон Симмонс, Кристиан Бовинг, Стоджи Кеньятта, Энди ЛяКомб, Джо Сабатино, Майкл Пол Чан, Кимберли Скотт, Джей Лючс, Роджер Нельс, Энтони Э. Кантрелл, Алекс Дэниелс, Питер Нэви Туясосопо, Гарри Ван Горкум, Сандра Тейлор, Элизабет Губер, Джек Беттс, Марк Глимчер, Марк Лихи, Джим МакМуллан, Джесси Вентура, Ральф Мёллер, Даг Хатчисон, Гре



О фильме: Над Готэмом вновь нависла угроза: злодей-морозилка Мистер Фриз и психованная любительница растений по кличке Ядовитый Плющ решают уничтожить город. Единственные, кто могут остановить злодеев — Бэтмен и Робин, однако у этих супергероев возникают разногласия…

Страна: США, Великобритания
Студия: PolyGram Filmed Entertainment, Warner Bros. Pictures Co.
Продолжительность: 2:04:51
Перевод: Дублированный | Лицензия

Качество: BDRemux 2160p
Видео: MPEG-H HEVC HDR Video, 3840x2160, 71900 Kbit/s, 23.976 fps
Звук:
Аудио #01: 48 kHz, AC3, 5.1, 448 Kbps | Дублированный | RUS |
Аудио #02: 48 kHz, TrueHD, 7.1, 4153 Kbps | Оригинал | ENG |
Аудио #03: 48 kHz, AC3, 5.1, 640 Kbps | Оригинал | ENG |
Субтитры: Русские (full), английские



MI
General
Unique ID : 216787960894562533890360214179524975498 (0xA317D7B128260BD45FF4B07B5C6D1B8A)
Complete name : D:Video111Batman.and.Robin.1997.BDREMUX.2160p.HDR.seleZen.mkv
Format : Matroska
Format version : Version 4
File size : 67.3 GiB
Duration : 2 h 4 min
Overall bit rate mode : Variable
Overall bit rate : 77.2 Mb/s
Movie name : Batman and Robin 1997 from селезень
Encoded date : UTC 2019-06-03 22:49:08
Writing application : mkvmerge v33.1.0 ('Primrose') 64-bit
Writing library : libebml v1.3.7 + libmatroska v1.5.0

Video
ID : 1
Format : HEVC
Format/Info : High Efficiency Video Coding
Format profile : Main [email protected]@High
HDR format : SMPTE ST 2086, HDR10 compatible
Codec ID : V_MPEGH/ISO/HEVC
Duration : 2 h 4 min
Bit rate : 71.9 Mb/s
Width : 3 840 pixels
Height : 2 160 pixels
Display aspect ratio : 16:9
Frame rate mode : Constant
Frame rate : 23.976 (24000/1001) FPS
Color space : YUV
Chroma subsampling : 4:2:0 (Type 2)
Bit depth : 10 bits
Bits/(Pixel*Frame) : 0.362
Stream size : 62.7 GiB (93%)
Writing library : ATEME Titan File 3.9.4 (4.9.4.6)
Language : English
Default : Yes
Forced : No
Color range : Limited
Color primaries : BT.2020
Transfer characteristics : PQ
Matrix coefficients : BT.2020 non-constant
Mastering display color pri : Display P3
Mastering display luminance : min: 0.0050 cd/m2, max: 4000 cd/m2
Maximum Content Light Level : 1642 cd/m2
Maximum Frame-Average Light : 167 cd/m2

Audio #1
ID : 2
Format : AC-3
Format/Info : Audio Coding 3
Commercial name : Dolby Digital
Codec ID : A_AC3
Duration : 2 h 4 min
Bit rate mode : Constant
Bit rate : 448 kb/s
Channel(s) : 6 channels
Channel layout : L R C LFE Ls Rs
Sampling rate : 48.0 kHz
Frame rate : 31.250 FPS (1536 SPF)
Bit depth : 16 bits
Compression mode : Lossy
Stream size : 400 MiB (1%)
Title : Dub [License]
Language : Russian
Service kind : Complete Main
Default : Yes
Forced : Yes

Audio #2
ID : 3
Format : MLP FBA 16-ch
Format/Info : Meridian Lossless Packing FBA with 16-channel presentation
Commercial name : Dolby TrueHD with Dolby Atmos
Codec ID : A_TRUEHD
Duration : 2 h 4 min
Bit rate mode : Variable
Bit rate : 4 153 kb/s
Maximum bit rate : 7 032 kb/s
Channel(s) : 8 channels
Channel layout : L R C LFE Ls Rs Lb Rb
Sampling rate : 48.0 kHz
Frame rate : 1 200.000 FPS (40 SPF)
Compression mode : Lossless
Stream size : 3.62 GiB (5%)
Title : Original
Language : English
Default : No
Forced : No
Number of dynamic objects : 15
Bed channel count : 1 channel
Bed channel configuration : LFE

Audio #3
ID : 4
Format : AC-3
Format/Info : Audio Coding 3
Commercial name : Dolby Digital
Codec ID : A_AC3
Duration : 2 h 4 min
Bit rate mode : Constant
Bit rate : 640 kb/s
Channel(s) : 6 channels
Channel layout : L R C LFE Ls Rs
Sampling rate : 48.0 kHz
Frame rate : 31.250 FPS (1536 SPF)
Bit depth : 16 bits
Compression mode : Lossy
Stream size : 572 MiB (1%)
Language : English
Service kind : Complete Main
Default : No
Forced : No

Text #1
ID : 5
Format : UTF-8
Codec ID : S_TEXT/UTF8
Codec ID/Info : UTF-8 Plain Text
Duration : 1 h 58 min
Bit rate : 60 b/s
Count of elements : 1191
Stream size : 52.3 KiB (0%)
Title : Full
Language : Russian
Default : No
Forced : No

Text #2
ID : 6
Format : UTF-8
Codec ID : S_TEXT/UTF8
Codec ID/Info : UTF-8 Plain Text
Duration : 1 h 57 min
Bit rate : 37 b/s
Count of elements : 1164
Stream size : 32.4 KiB (0%)
Title : Full
Language : English
Default : No
Forced : No

Menu
00:00:00.000 : :Глава 01
00:03:51.064 : :Глава 02
00:09:12.385 : :Глава 03
00:13:25.846 : :Глава 04
00:15:11.577 : :Глава 05
00:19:09.356 : :Глава 06
00:21:00.926 : :Глава 07
00:24:03.442 : :Глава 08
00:26:35.719 : :Глава 09
00:29:13.084 : :Глава 10
00:31:41.608 : :Глава 11
00:33:59.203 : :Глава 12
00:38:42.111 : :Глава 13
00:39:54.517 : :Глава 14
00:45:32.104 : :Глава 15
00:48:47.841 : :Глава 16
00:50:53.425 : :Глава 17
00:54:27.889 : :Глава 18
00:56:23.380 : :Глава 19
00:59:29.649 : :Глава 20
01:01:05.119 : :Глава 21
01:06:00.790 : :Глава 22
01:07:47.438 : :Глава 23
01:12:16.707 : :Глава 24
01:15:59.012 : :Глава 25
01:20:16.436 : :Глава 26
01:22:59.766 : :Глава 27
01:25:40.385 : :Глава 28
01:28:47.447 : :Глава 29
01:32:02.016 : :Глава 30
01:33:25.224 : :Глава 31
01:35:15.835 : :Глава 32
01:36:25.112 : :Глава 33
01:41:21.116 : :Глава 34
01:44:21.380 : :Глава 35
01:48:36.510 : :Глава 36
01:49:53.753 : :Глава 37
01:51:43.571 : :Глава 38
01:53:33.598 : :Глава 39
01:56:29.190 : :Глава 40
01:57:25.413 : :Глава 41
01:59:41.716 : :Глава 42

Релиз:

 

Вложения

  • 85,2 KB Просмотры: 1
    Личеров 0
    Сидеров 0
    Файлов 1
    Объем 67,3 GB

Привет!

Мы группа людей которые решили помочь другим в решении их проблем, а так же пользователям с поиском самых свежих и качественных инфопродуктов. За 4 с небольшим месяца мы создали этот форум на который заходят ежедневно тысячи человек и посещаемость постоянно растёт. Мы создали панель лицензирования для защиты PHP скриптов от воровства и SEO панель для мониторинга наших сайтов и выбора верной стратегии их развития. Мы надеемся что то что мы создали пригодится Вам и возможно Вы поможете нам развиваться и совершенствоваться вместе с Вами.

Статистика форума

Темы
412.156
Сообщения
471.191
Пользователи
91.623
Новый пользователь
semen77bum

Приложения форума для iOS и Android


У ркн там нет власти ;)
Приватные разговоры
Помощь Пользователи
    Вы не присоединились ни к одной комнате.